Vítejte na stránkách . Klikněte zde pro registraci

Uživatelské jméno:   Heslo:   Pamätat si ma  Skrýt můj online stav 
Registrovat    Přihlásit se    Fórum    Hledat    FAQ
Bannery     Kontakt   


Informační Panel

:welcome:




www.centralwar.eu
www.centralwar.eu

Obsah fóra » Filmy download » CZ/SK dubbing




Odeslat nové téma Odpovědět na téma  [ Příspěvků: 3 ] 
Autor Zpráva
 Předmět příspěvku: Strážci Galaxie Vol. 2 / Guardians of the Galaxy 2 (2017)
 Příspěvek Napsal: 03 zář 2017, 10:59 
Offline
Uploader

Registrován: 15 kvě 2016, 16:33
ID Užívateľa: 66133

Online: 13d 13h 39m 21s
Poďakoval: 0 x
Obdržal: 1 x


Částka:
19,056.10



Karma: 0


Strážci Galaxie Vol.2 / Guardians of the Galaxy Vol.2 (2017)

Obrázek
RELEASE
strazci.galaxie.vol.2.2017.480p.BDRip.x264.AC3.CZ.DABING
strazci.galaxie.vol.2.2017.720p.BDRip.x264.AC3.CZ.DABING
*******************************************************************
info -mám odzkoušené film se neseká

ČSFD/IMDB
Pouze Registrovaní uživatelé mohou prohlížet odkazy v tagu code! Registrujte se anebo se Přihlašte na fórum.


strazci.galaxie.vol.2.2017.480p.BDRip.x264.AC3.CZ.DABING
AUDIO:CZ AC-3 2.0, 224 Kbps (Zvuk sedi s obrazem během celého filmu,mam už odzkoušené že není opozdeny zvuk)
TITULKY:Czech forced v obraze

INFO
Pouze Registrovaní uživatelé mohou prohlížet odkazy v tagu code! Registrujte se anebo se Přihlašte na fórum.


DOWNLOAD
Pouze Registrovaní uživatelé mohou prohlížet odkazy v tagu code! Registrujte se anebo se Přihlašte na fórum.


*******************************************************************
strazci.galaxie.vol.2.2017.720p.BDRip.x264.AC3.CZ.DABING
AUDIO:CZ AC-3 2.0, 448 Kbps (Zvuk sedi s obrazem během celého filmu,mam už odzkoušené že není opozdeny zvuk)
TITULKY:Czech forced v obraze

INFO
Pouze Registrovaní uživatelé mohou prohlížet odkazy v tagu code! Registrujte se anebo se Přihlašte na fórum.


DOWNLOAD
Pouze Registrovaní uživatelé mohou prohlížet odkazy v tagu code! Registrujte se anebo se Přihlašte na fórum.


Naposledy upravil Stanley dne 21 zář 2017, 06:02, celkově upraveno 3
Smazány mrtvé linky


Nahoru 
 Profil  
 
 Předmět příspěvku: Strážci Galaxie Vol. 2 / Guardians of the Galaxy 2 (2017)
 Příspěvek Napsal: 20 zář 2017, 22:03 
Offline
Registrovaní uživatelé

Registrován: 26 kvě 2015, 02:07
ID Užívateľa: 65331

Online: 9d 14h 15m 52s
Poďakoval: 0 x
Obdržal: 8 x


Částka:
18,722.45



Karma: 0


Strážci Galaxie Vol.2 / Guardians of the Galaxy Vol.2 (2017)

CSFD:

Pouze Registrovaní uživatelé mohou prohlížet odkazy v tagu code! Registrujte se anebo se Přihlašte na fórum.


Obrázek

Guardians.of.the.Galaxy.Vol.2.2017.480p.BDRip.XviD.AC3.DD5.1.CZ
Guardians.of.the.Galaxy.Vol.2.2017.480p.BDRip.XviD.AC3.DD5.1.CZ
Guardians.of.the.Galaxy.Vol.2.2017.720p.BDRip.XviD.AC3.DD5.1.CZ


Guardians.of.the.Galaxy.Vol.2.2017.480p.BDRip.XviD.AC3.DD5.1.CZ
Jazyk: Czech 5.1 640 Kbps
Subtitles: Czech forced

iNFO

Pouze Registrovaní uživatelé mohou prohlížet odkazy v tagu code! Registrujte se anebo se Přihlašte na fórum.


Obrázek
Pouze Registrovaní uživatelé mohou prohlížet odkazy v tagu code! Registrujte se anebo se Přihlašte na fórum.

Guardians.of.the.Galaxy.Vol.2.2017.480p.BDRip.XviD.AC3.DD5.1.CZ

iNFO

Pouze Registrovaní uživatelé mohou prohlížet odkazy v tagu code! Registrujte se anebo se Přihlašte na fórum.


Obrázek
Pouze Registrovaní uživatelé mohou prohlížet odkazy v tagu code! Registrujte se anebo se Přihlašte na fórum.

Guardians.of.the.Galaxy.Vol.2.2017.720p.BDRip.XviD.AC3.DD5.1.CZ

iNFO

Pouze Registrovaní uživatelé mohou prohlížet odkazy v tagu code! Registrujte se anebo se Přihlašte na fórum.


Obrázek
Pouze Registrovaní uživatelé mohou prohlížet odkazy v tagu code! Registrujte se anebo se Přihlašte na fórum.

Subs: Czech forced
Pouze Registrovaní uživatelé mohou prohlížet odkazy v tagu code! Registrujte se anebo se Přihlašte na fórum.


Nahoru 
 Profil  
 
 Předmět příspěvku: Strážci Galaxie Vol. 2 / Guardians of the Galaxy 2 (2017)
 Příspěvek Napsal: 21 dub 2018, 22:42 
Offline
Registrovaní uživatelé

Registrován: 27 led 2016, 20:28
ID Užívateľa: 65951

Online: 1d 14h 26m 45s
Poďakoval: 0 x
Obdržal: 0 x


Částka:
1,626.80



Karma: 0


Strážci Galaxie Vol. 2 / Guardians of the Galaxy Vol. 2 (2017)
Video/Zdroj: BluRay 1080p
Audio: CZ 5.1ch AC-3, EN 5.1ch AC-3
Titulky: CZ, EN

Obrázek

Pouze Registrovaní uživatelé mohou prohlížet odkazy v tagu code! Registrujte se anebo se Přihlašte na fórum.


Citace:
Format : Matroska
Format version : Version 4 / Version 2
File size : 14.6 GiB
Duration : 2 h 15 min
Overall bit rate : 15.4 Mb/s

Video
Format : AVC
Format profile : High@L4.1
Duration : 2 h 15 min
Bit rate : 14.1 Mb/s
Width : 1 920 pixels
Height : 804 pixels
Display aspect ratio : 2.40:1
Frame rate mode : Constant
Frame rate : 23.976 (24000/1001) FPS
Color space : YUV
Chroma subsampling : 4:2:0
Bit depth : 8 bits
Scan type : Progressive
Bits/(Pixel*Frame) : 0.382
Stream size : 13.1 GiB (90%)

Audio #1
Format : AC-3
Duration : 2 h 15 min
Bit rate mode : Constant
Bit rate : 640 kb/s
Channel(s) : 6 channels
Channel positions : Front: L C R, Side: L R, LFE
Sampling rate : 48.0 kHz
Frame rate : 31.250 FPS (1536 SPF)
Bit depth : 16 bits
Compression mode : Lossy
Stream size : 622 MiB (4%)
Language : Czech
Default : Yes
Forced : Yes

Audio #2
Format : AC-3
Duration : 2 h 15 min
Bit rate mode : Constant
Bit rate : 640 kb/s
Channel(s) : 6 channels
Channel positions : Front: L C R, Side: L R, LFE
Sampling rate : 48.0 kHz
Frame rate : 31.250 FPS (1536 SPF)
Bit depth : 16 bits
Compression mode : Lossy
Stream size : 622 MiB (4%)
Language : English
Default : No
Forced : No

Text #1
Format : UTF-8
Language : Czech
Default : Yes
Forced : Yes

Text #2
Format : UTF-8
Language : Czech
Default : No
Forced : No

Text #3
Format : UTF-8
Language : English
Default : No
Forced : No

Text #4
Format : PGS
Language : English
Default : No
Forced : No

Text #5
Format : PGS
Language : English
Default : No
Forced : No


Pouze Registrovaní uživatelé mohou prohlížet odkazy v tagu code! Registrujte se anebo se Přihlašte na fórum.


Bez hesla. Balené bez kompresie. Pridaný záznam pre opravu dát 5%.


Nahoru 
 Profil  
 
Zobrazit příspěvky za předchozí:  Seřadit podle  
 
Odeslat nové téma Odpovědět na téma  [ Příspěvků: 3 ] 

Obsah fóra » Filmy download » CZ/SK dubbing


 
Nemůžete zakládat nová témata v tomto fóru
Nemůžete odpovídat v tomto fóru
Nemůžete upravovat své příspěvky v tomto fóru
Nemůžete mazat své příspěvky v tomto fóru
Nemůžete přikládat soubory v tomto fóru

Hledat:
Přejít na:  







TOPlist
Český překlad – phpBB.cz
Karma functions powered by Karma MOD © 2007, 2009 m157y
phpBB SEO



..:: Žádný ze zobrazených souborů, které můžete nalézt na tomto fóru, nejsou umístěny na tomto serveru. Autoři stránky nenesou zodpovědnost za příspěvky odeslané užívateli,ani za jejich další akce,které by mohli vést k porušování zákonů. Za své příspěvky zodpovídají uživatelé. Nepoužívejte tyto stránky k distribuci a nebo k downloadu jakýchkoliv materiálů, ke kterým nemáte legální oprávnění a nebo licenci ::..