Vítejte na stránkách . Klikněte zde pro registraci

Uživatelské jméno:   Heslo:   Pamätat si ma  Skrýt můj online stav 
Registrovat    Přihlásit se    Fórum    Hledat    FAQ
Bannery     Kontakt   


Informační Panel

wel




www.centralwar.eu
www.centralwar.eu

Obsah fóra » Filmy download » CZ/SK dubbing




Odeslat nové téma Odpovědět na téma  [ Příspěvků: 2 ] 
Autor Zpráva
 Předmět příspěvku: Bosorka / Die Ketzerbraut (2017)
 Příspěvek Napsal: 10 zář 2017, 08:00 
Offline
Registrovaní uživatelé

Registrován: 07 zář 2015, 10:00
ID Užívateľa: 65587

Online: 10d 20h 3m 51s
Poďakoval: 0 x
Obdržal: 2 x


Částka:
22,603.45

V bance:
0.00



Karma: 0


Bosorka / Die Ketzerbraut (2017)
Bosorka.Die Ketzerbraut.2017.SK DABING.BDRip.Avi
JAZYK - SK
Obrázek
Pouze Registrovaní uživatelé mohou prohlížet odkazy v tagu code! Registrujte se anebo se Přihlašte na fórum.

Pouze Registrovaní uživatelé mohou prohlížet odkazy v tagu code! Registrujte se anebo se Přihlašte na fórum.

Obrázek
Obrázek
Pouze Registrovaní uživatelé mohou prohlížet odkazy v tagu code! Registrujte se anebo se Přihlašte na fórum.


Nahoru 
 Profil  
 
 Předmět příspěvku: Bosorka / Die Ketzerbraut (2017)
 Příspěvek Napsal: 15 led 2018, 09:06 
Offline
Noví členové fóra

Registrován: 04 pro 2015, 21:42
ID Užívateľa: 65833

Online: 2d 22h 12m 3s
Poďakoval: 0 x
Obdržal: 0 x


Částka: Zamknuté


Karma: 0


Bosorka-TvRip-Sk-2017

Obrázek
Obrázek
Obrázek
Obrázek
Obrázek

info

Pouze Registrovaní uživatelé mohou prohlížet odkazy v tagu code! Registrujte se anebo se Přihlašte na fórum.


Citace:
Mníchov, rok 1518. Rešpektovaný obchodník Bartholomew Leibert (Manuel Mairhofer) sa niekoľkokrát snažil neúspešne bojovať proti moci katolíckeho kňaza Johanna von Perlacha (Paulus Manker). Jediné čo však dosiahol bol hnev tohto bezohľadného človeka. Na Perlachov príkaz bol zničený obchodníkov dom a zavraždený on aj celá jeho rodina. Iba Leibertova malá dcéra Veva (Ruby O. Fee) prežije. No je unesená a znásilnená. Teraz táto „poškvrnená" mladá žena túži po pomste a aby všetci tí, ktorí sú zodpovední za smrť jej rodiny, trpeli rovnako ako ona. Jediný človek, ktorému môže dôverovať je maliar a jej priateľ z detstva Ernst Rickinger (Christoph Letkowski). Čoskoro sa dozvie, že jej priateľ je možno dohodnutý s maskovaným mužom, ktorý rozširuje letáky proti katolíckej cirkvi. Pre Perlacha je tento maskovaný muž dlhodobý problém a počas jeho hľadania obrátil celé mesto naruby. Je toto Vevina príležitosť na pomstu?(TV Markíza)


kvalita

Citace:
General
Complete name : D:\up\avi\Bosorka-TvRip-Sk-2017.avi
Format : AVI
Format/Info : Audio Video Interleave
Format profile : OpenDML
File size : 1.95 GiB
Duration : 1h 59mn
Overall bit rate : 2 331 Kbps
Writing application : Lavf54.63.104

Video
ID : 0
Format : MPEG-4 Visual
Format profile : Simple@L1
Format settings, BVOP : No
Format settings, QPel : No
Format settings, GMC : No warppoints
Format settings, Matrix : Default (H.263)
Codec ID : FMP4
Duration : 1h 59mn
Bit rate : 1 999 Kbps
Width : 1 280 pixels
Height : 720 pixels
Display aspect ratio : 16:9
Frame rate : 24.000 fps
Color space : YUV
Chroma subsampling : 4:2:0
Bit depth : 8 bits
Scan type : Progressive
Compression mode : Lossy
Bits/(Pixel*Frame) : 0.090
Stream size : 1.67 GiB (86%)
Writing library : Lavc54.92.100

Audio
ID : 1
Format : MPEG Audio
Format version : Version 1
Format profile : Layer 3
Mode : Joint stereo
Mode extension : MS Stereo
Codec ID : 55
Codec ID/Hint : MP3
Duration : 1h 59mn
Bit rate mode : Constant
Bit rate : 320 Kbps
Channel(s) : 2 channels
Sampling rate : 44.1 KHz
Compression mode : Lossy
Stream size : 274 MiB (14%)
Alignment : Aligned on interleaves
Interleave, duration : 26 ms (0.63 video frame)
Writing library : LAME3.99.5


download

Pouze Registrovaní uživatelé mohou prohlížet odkazy v tagu code! Registrujte se anebo se Přihlašte na fórum.


Nahoru 
 Profil  
 
Zobrazit příspěvky za předchozí:  Seřadit podle  
 
Odeslat nové téma Odpovědět na téma  [ Příspěvků: 2 ] 

Obsah fóra » Filmy download » CZ/SK dubbing


 
Nemůžete zakládat nová témata v tomto fóru
Nemůžete odpovídat v tomto fóru
Nemůžete upravovat své příspěvky v tomto fóru
Nemůžete mazat své příspěvky v tomto fóru
Nemůžete přikládat soubory v tomto fóru

Hledat:
Přejít na:  







cron
TOPlist
Český překlad – phpBB.cz
Karma functions powered by Karma MOD © 2007, 2009 m157y
phpBB SEO



..:: Žádný ze zobrazených souborů, které můžete nalézt na tomto fóru, nejsou umístěny na tomto serveru. Autoři stránky nenesou zodpovědnost za příspěvky odeslané užívateli,ani za jejich další akce,které by mohli vést k porušování zákonů. Za své příspěvky zodpovídají uživatelé. Nepoužívejte tyto stránky k distribuci a nebo k downloadu jakýchkoliv materiálů, ke kterým nemáte legální oprávnění a nebo licenci ::..