Vítejte na stránkách . Klikněte zde pro registraci

Uživatelské jméno:   Heslo:   Pamätat si ma  Skrýt můj online stav 
Registrovat    Přihlásit se    Fórum    Hledat    FAQ
Bannery     Kontakt   


Informační Panel

Screeny,které budou nad klasickou velikost,půjdou do koše!!! gb




www.centralwar.eu
www.centralwar.eu

Obsah fóra » Filmy download » Ostatné


Pravidla fóra


1.Vkládejte pouze příspěvky,které nelze nikam jinam zařadit
2.Téma musí obsahovat náhled obalu nebo screen(pokud obal není k dohledání na netu)
3.Informace (menu,titulky,dubbing,atd..)
4.Základní info o filmu (CSFD,IMDb)
5.Odkaz na CSFD nebo IMDb (nově dávat do code)
6.Odkazy vedoucí mimo forum dávat do code
7.Heslo (pokud je) do code
8.Nezakládat duplicitní témata-používat tlačítko hledat
9.Obrázky vkládat do IMG



Odeslat nové téma Odpovědět na téma  [ Příspěvek: 1 ] 
Autor Zpráva
 Předmět příspěvku: Den D / D-Day 6.6.1944 (2004)
 Příspěvek Napsal: 07 zář 2019, 23:15 
Offline
Registrovaní uživatelé

Registrován: 27 led 2016, 20:28
ID Užívateľa: 65951

Online: 12d 9h 9m 58s
Poďakoval: 0 x
Obdržal: 1 x


Částka:
4,361.00



Karma: 0


Den D / D-Day 6.6.1944 (2004)

Video/Zdroj: DVDRip
Audio: CZ AC-3 2ch


Obrázek

CSFD / IMDB
Pouze Registrovaní uživatelé mohou prohlížet odkazy v tagu code! Registrujte se anebo se Přihlašte na fórum.


INFO
Citace:
Format : AVI
Format settings : rec
File size : 1.33 GiB
Duration : 1 h 42 min
Overall bit rate : 1 846 kb/s

Video
Format : MPEG-4 Visual
Format settings, Matrix : Default (H.263)
Codec ID : DIVX
Codec ID/Hint : DivX 4
Duration : 1 h 42 min
Bit rate : 1 646 kb/s
Width : 480 pixels
Height : 368 pixels
Display aspect ratio : 4:3
Frame rate : 25.000 FPS
Color space : YUV
Chroma subsampling : 4:2:0
Bit depth : 8 bits
Scan type : Progressive
Compression mode : Lossy
Bits/(Pixel*Frame) : 0.373
Stream size : 1.18 GiB (89%)

Audio
Format : AC-3
Duration : 1 h 42 min
Bit rate mode : Constant
Bit rate : 192 kb/s
Channel(s) : 2 channels
Channel positions : Front: L R
Sampling rate : 48.0 kHz
Frame rate : 31.250 FPS (1536 SPF)
Bit depth : 16 bits
Compression mode : Lossy
Stream size : 141 MiB (10%)
Alignment : Aligned on interleaves
Interleave, duration : 64 ms (1.60 video frames)
Interleave, preload duratio : 512 ms
Service kind : Complete Main


FASTSHARE
Pouze Registrovaní uživatelé mohou prohlížet odkazy v tagu code! Registrujte se anebo se Přihlašte na fórum.


Nahoru 
 Profil  
 
Zobrazit příspěvky za předchozí:  Seřadit podle  
 
Odeslat nové téma Odpovědět na téma  [ Příspěvek: 1 ] 

Obsah fóra » Filmy download » Ostatné


 
Nemůžete zakládat nová témata v tomto fóru
Nemůžete odpovídat v tomto fóru
Nemůžete upravovat své příspěvky v tomto fóru
Nemůžete mazat své příspěvky v tomto fóru
Nemůžete přikládat soubory v tomto fóru

Hledat:
Přejít na:  







TOPlist
Český překlad – phpBB.cz
Karma functions powered by Karma MOD © 2007, 2009 m157y
phpBB SEO



..:: Žádný ze zobrazených souborů, které můžete nalézt na tomto fóru, nejsou umístěny na tomto serveru. Autoři stránky nenesou zodpovědnost za příspěvky odeslané užívateli,ani za jejich další akce,které by mohli vést k porušování zákonů. Za své příspěvky zodpovídají uživatelé. Nepoužívejte tyto stránky k distribuci a nebo k downloadu jakýchkoliv materiálů, ke kterým nemáte legální oprávnění a nebo licenci ::..