Vítejte na stránkách . Klikněte zde pro registraci

Uživatelské jméno:   Heslo:   Pamätat si ma  Skrýt můj online stav 
Registrovat    Přihlásit se    Fórum    Hledat    FAQ
Bannery     Kontakt   


Informační Panel

wel




www.centralwar.eu
www.centralwar.eu

Obsah fóra » Filmy download » Seriály » Seriály s titulky




Odeslat nové téma Odpovědět na téma  [ Příspěvek: 1 ] 
Autor Zpráva
 Předmět příspěvku: Zoo / Zoo ( 2015 - 2017) EN + titulky
 Příspěvek Napsal: 08 led 2018, 16:17 
Offline
Noví členové fóra

Registrován: 04 pro 2015, 22:42
ID Užívateľa: 65833

Online: 3d 11h 15m 51s
Poďakoval: 0 x
Obdržal: 0 x


Částka: Zamknuté


Karma: 0


Zoo.S01E08.HDTV.x264-LOL

Obrázek
Obrázek
Obrázek

info

Pouze Registrovaní uživatelé mohou prohlížet odkazy v tagu code! Registrujte se anebo se Přihlašte na fórum.


Citace:
ZOO je adaptáciou rovnomenného bestselleru od Jamesa Pattersona. Na celej planéte prepukla vlna násilníckych zvieracích útokov proti ľuďom. Napadnutia sú stále viac koordinované a zúrivé. Skupina ľudí zložená zo zoológa Jacksona, safari sprievodcu Abrahama, zvieracieho patológa Mitcha, reportérky Jamie a analytičky francúzskeho ministerstva obrany Chloe má za úlohu zistiť, čo sa deje, prečo sa to deje a ako to zastaviť.(TV Markíza)


kvalita

Citace:
General
Complete name : D:\up\mp4\Zoo.S01E08.HDTV.x264-LOL.mp4
Format : MPEG-4
Format profile : Base Media
Codec ID : isom
File size : 287 MiB
Duration : 40mn 40s
Overall bit rate mode : Variable
Overall bit rate : 988 Kbps
Encoded date : UTC 2015-08-18 16:07:58
Tagged date : UTC 2015-08-18 16:07:58

Video
ID : 1
Format : AVC
Format/Info : Advanced Video Codec
Format profile : High@L3.1
Format settings, CABAC : Yes
Format settings, ReFrames : 5 frames
Codec ID : avc1
Codec ID/Info : Advanced Video Coding
Duration : 40mn 40s
Bit rate : 866 Kbps
Maximum bit rate : 3 894 Kbps
Width : 720 pixels
Height : 404 pixels
Display aspect ratio : 16:9
Frame rate mode : Constant
Frame rate : 23.976 fps
Color space : YUV
Chroma subsampling : 4:2:0
Bit depth : 8 bits
Scan type : Progressive
Bits/(Pixel*Frame) : 0.124
Stream size : 252 MiB (88%)
Writing library : x264 core 146 r2538 121396c
Encoding settings : cabac=1 / ref=5 / deblock=1:1:1 / analyse=0x3:0x133 / me=umh / subme=9 / psy=1 / psy_rd=1.00:0.00 / mixed_ref=1 / me_range=16 / chroma_me=1 / trellis=2 / 8x8dct=1 / cqm=0 / deadzone=21,11 / fast_pskip=0 / chroma_qp_offset=-2 / threads=16 / lookahead_threads=1 / sliced_threads=0 / nr=0 / decimate=1 / interlaced=0 / bluray_compat=0 / constrained_intra=0 / bframes=3 / b_pyramid=2 / b_adapt=2 / b_bias=0 / direct=3 / weightb=1 / open_gop=0 / weightp=2 / keyint=250 / keyint_min=23 / scenecut=40 / intra_refresh=0 / rc_lookahead=60 / rc=crf / mbtree=1 / crf=19.0 / qcomp=0.60 / qpmin=0 / qpmax=69 / qpstep=4 / ip_ratio=1.40 / aq=1:1.00
Encoded date : UTC 2015-08-18 15:09:11
Tagged date : UTC 2015-08-18 16:08:00
Color range : Limited
Matrix coefficients : BT.709

Audio
ID : 2
Format : AAC
Format/Info : Advanced Audio Codec
Format profile : LC
Codec ID : 40
Duration : 40mn 40s
Bit rate mode : Variable
Bit rate : 118 Kbps
Maximum bit rate : 146 Kbps
Channel(s) : 2 channels
Channel positions : Front: L R
Sampling rate : 48.0 KHz
Compression mode : Lossy
Stream size : 34.2 MiB (12%)
Encoded date : UTC 2015-08-18 16:07:59
Tagged date : UTC 2015-08-18 16:08:00


download

Pouze Registrovaní uživatelé mohou prohlížet odkazy v tagu code! Registrujte se anebo se Přihlašte na fórum.


titulky

Pouze Registrovaní uživatelé mohou prohlížet odkazy v tagu code! Registrujte se anebo se Přihlašte na fórum.


Nahoru 
 Profil  
 
Zobrazit příspěvky za předchozí:  Seřadit podle  
 
Odeslat nové téma Odpovědět na téma  [ Příspěvek: 1 ] 

Obsah fóra » Filmy download » Seriály » Seriály s titulky


 
Nemůžete zakládat nová témata v tomto fóru
Nemůžete odpovídat v tomto fóru
Nemůžete upravovat své příspěvky v tomto fóru
Nemůžete mazat své příspěvky v tomto fóru
Nemůžete přikládat soubory v tomto fóru

Hledat:
Přejít na:  







TOPlist
Český překlad – phpBB.cz
Karma functions powered by Karma MOD © 2007, 2009 m157y
phpBB SEO



..:: Žádný ze zobrazených souborů, které můžete nalézt na tomto fóru, nejsou umístěny na tomto serveru. Autoři stránky nenesou zodpovědnost za příspěvky odeslané užívateli,ani za jejich další akce,které by mohli vést k porušování zákonů. Za své příspěvky zodpovídají uživatelé. Nepoužívejte tyto stránky k distribuci a nebo k downloadu jakýchkoliv materiálů, ke kterým nemáte legální oprávnění a nebo licenci ::..