Vítejte na stránkách . Klikněte zde pro registraci

Uživatelské jméno:   Heslo:   Pamätat si ma  Skrýt můj online stav 
Registrovat    Přihlásit se    Fórum    Hledat    FAQ
Bannery     Kontakt   


Informační Panel

Screeny,které budou nad klasickou velikost,půjdou do koše!!! gb




www.centralwar.eu
www.centralwar.eu

Obsah fóra » Filmy download » Filmy Originál / s titulky+novinky (Premiéry)


Pravidla fóra


Vkládejte do této sekce filmy s původním názvem / cz název (rok)



Odeslat nové téma Odpovědět na téma  [ Příspěvek: 1 ] 
Autor Zpráva
 Předmět příspěvku: Da Wu Dang zhi tian di mi ma / Da wu dang tian di... (2012)
 Příspěvek Napsal: 11 led 2020, 21:08 
Offline
Registrovaní uživatelé

Registrován: 27 led 2016, 20:28
ID Užívateľa: 65951

Online: 13d 3h 54m 47s
Poďakoval: 0 x
Obdržal: 1 x


Částka:
5,024.20



Karma: 0


Wu Dang / Da wu dang tian di mi ma (2012)

Video/Zdroj: BDRip 720p
Audio: CHI MP3 2ch
Titulky: CZ


Obrázek

CSFD / IMDB
Pouze Registrovaní uživatelé mohou prohlížet odkazy v tagu code! Registrujte se anebo se Přihlašte na fórum.


INFO
Citace:
Format : AVI
File size : 2.11 GiB
Duration : 1 h 40 min
Overall bit rate : 3 005 kb/s

Video
Format : AVC
Format profile : Main@L3.1
Codec ID : H264
Duration : 1 h 40 min
Bit rate : 2 940 kb/s
Width : 1 280 pixels
Height : 720 pixels
Display aspect ratio : 16:9
Frame rate mode : Variable
Frame rate : 23.976 (23976/1000) FPS
Color space : YUV
Chroma subsampling : 4:2:0
Bit depth : 8 bits
Scan type : Progressive
Bits/(Pixel*Frame) : 0.133
Stream size : 2.03 GiB (96%)

Audio
Format : MPEG Audio
Codec ID/Hint : MP3
Duration : 1 h 40 min
Bit rate mode : Constant
Bit rate : 96.0 kb/s
Channel(s) : 2 channels
Sampling rate : 44.1 kHz
Compression mode : Lossy
Stream size : 69.0 MiB (3%)
Alignment : Aligned on interleaves
Interleave, duration : 26 ms (0.63 video frame)


FASTSHARE

Pouze Registrovaní uživatelé mohou prohlížet odkazy v tagu code! Registrujte se anebo se Přihlašte na fórum.


Naposledy upravil Stanley dne 11 led 2020, 22:07, celkově upraveno 1
Oprava názvu tématu


Nahoru 
 Profil  
 
Zobrazit příspěvky za předchozí:  Seřadit podle  
 
Odeslat nové téma Odpovědět na téma  [ Příspěvek: 1 ] 

Obsah fóra » Filmy download » Filmy Originál / s titulky+novinky (Premiéry)


 
Nemůžete zakládat nová témata v tomto fóru
Nemůžete odpovídat v tomto fóru
Nemůžete upravovat své příspěvky v tomto fóru
Nemůžete mazat své příspěvky v tomto fóru
Nemůžete přikládat soubory v tomto fóru

Hledat:
Přejít na:  







TOPlist
Český překlad – phpBB.cz
Karma functions powered by Karma MOD © 2007, 2009 m157y
phpBB SEO



..:: Žádný ze zobrazených souborů, které můžete nalézt na tomto fóru, nejsou umístěny na tomto serveru. Autoři stránky nenesou zodpovědnost za příspěvky odeslané užívateli,ani za jejich další akce,které by mohli vést k porušování zákonů. Za své příspěvky zodpovídají uživatelé. Nepoužívejte tyto stránky k distribuci a nebo k downloadu jakýchkoliv materiálů, ke kterým nemáte legální oprávnění a nebo licenci ::..