Vítejte na stránkách . Klikněte zde pro registraci

Uživatelské jméno:   Heslo:   Pamätat si ma  Skrýt můj online stav 
Registrovat    Přihlásit se    Fórum    Hledat    FAQ
Bannery     Kontakt   


Informační Panel

:welcome:




www.centralwar.eu
www.centralwar.eu

Obsah fóra » Filmy download » Filmy Originál / s titulky+novinky (Premiéry)


Pravidla fóra


Vkládejte do této sekce filmy s původním názvem / cz název (rok)



Odeslat nové téma Odpovědět na téma  [ Příspěvků: 3 ] 
Autor Zpráva
 Předmět příspěvku: Jigsaw / SAW 8 (2017)
 Příspěvek Napsal: 10 led 2018, 09:02 
Offline
Registrovaní uživatelé

Registrován: 07 zář 2015, 11:00
ID Užívateľa: 65587

Online: 11d 10h 3m 53s
Poďakoval: 0 x
Obdržal: 2 x


Částka:
24,189.65

V bance:
0.00



Karma: 0


Jigsaw / SAW 8 (2017)
Jigsaw.2017.720p.WEB-DL.XviD.AC3-FGT.avi
Obrázek
Pouze Registrovaní uživatelé mohou prohlížet odkazy v tagu code! Registrujte se anebo se Přihlašte na fórum.

AUDIO - EN
Pouze Registrovaní uživatelé mohou prohlížet odkazy v tagu code! Registrujte se anebo se Přihlašte na fórum.

Obrázek
Obrázek
Pouze Registrovaní uživatelé mohou prohlížet odkazy v tagu code! Registrujte se anebo se Přihlašte na fórum.

titulky
Pouze Registrovaní uživatelé mohou prohlížet odkazy v tagu code! Registrujte se anebo se Přihlašte na fórum.




Jigsaw.Saw 8.2017.CZ titulky.720p.WEB-DL.avi
TITULKY - CZ v OBRAZEObrázek
AUDIO - EN
Použitý zdroj : Jigsaw.2017.720p.WEB-DL.XviD.AC3-FGT.avi
Pouze Registrovaní uživatelé mohou prohlížet odkazy v tagu code! Registrujte se anebo se Přihlašte na fórum.

Obrázek
Obrázek
Pouze Registrovaní uživatelé mohou prohlížet odkazy v tagu code! Registrujte se anebo se Přihlašte na fórum.


Naposledy upravil rr102 dne 11 led 2018, 06:50, celkově upraveno 3

Nahoru 
 Profil  
 
 Předmět příspěvku: Jigsaw / SAW 8 (2017)
 Příspěvek Napsal: 15 led 2018, 20:57 
Offline
Registrovaní uživatelé
Uživatelský avatar

Registrován: 23 kvě 2010, 09:37
ID Užívateľa: 38343

Online: 65d 23h 36m 34s
Poďakoval: 1 x
Obdržal: 2 x


Částka:
21,791.25



Karma: 0


Obrázek

Pouze Registrovaní uživatelé mohou prohlížet odkazy v tagu code! Registrujte se anebo se Přihlašte na fórum.


Horor / Thriller / Krimi / Mysteriózní

USA / Kanada, 2017, 91 min
Režie: Michael Spierig, Peter Spierig
Scénář: Pete Goldfinger, Josh Stolberg
Kamera: Ben Nott
Hudba: Charlie Clouser
Hrají: Tobin Bell, Matt Passmore, Callum Keith Rennie, Laura Vandervoort, Hannah Emily Anderson

Zohavená těla se začnou objevovat na různých místech ve městě. V průběhu vyšetřování všechny důkazy jednoznačně ukazují na jednoho muže: Johna Kramera.
Jak to jen může být možné? Muž zvaný Jigsaw je totiž více než 10 let po smrti. Pokračování známé hororové série SAW je tu znovu.... Těšte se, budete se bát.


Obrázek

Velikost souboru : 2,55 GiB
Duration/String : 1h 32mn
Celkový BitRate : 3 961 Kbps


Video
Formát : MPEG-4 Visual
Format_Settings_Matrix/String : Default (H.263)
CodecID : XviD
Bit rate : 3 499 Kbps
Šířka : 1 280pixely
Výška : 536pixely
Poměr stran : 2,40:1


Audio
Formát : AC-3
Bit rate : 384 Kbps
Kanál(y) : 6 kanály
Channel positions : Front: L C R, Side: L R, LFE
Sampling rate : 48,0 KHz
Jazyk : English

Titulky
Jazyk : Czech
Jazyk : English


Pouze Registrovaní uživatelé mohou prohlížet odkazy v tagu code! Registrujte se anebo se Přihlašte na fórum.



Obrázek

Velikost souboru : 3,21 GiB
Duration/String : 1h 32mn
Celkový BitRate : 4 979 Kbps


Video
Formát : AVC
Format_Profile : High@L4.0
Bit rate : 4 496 Kbps
Šířka : 1 920pixely
Výška : 804pixely
Poměr stran : 2,40:1
Frame rate : 23,976 fps


Audio
Formát : AC-3
Bit rate : 384 Kbps
Kanál(y) : 6 kanály
Channel positions : Front: L C R, Side: L R, LFE
Sampling rate : 48,0 KHz
BitDepth/String : 16 bits
Jazyk : English

Titulky
Jazyk : Czech
Jazyk : English


Pouze Registrovaní uživatelé mohou prohlížet odkazy v tagu code! Registrujte se anebo se Přihlašte na fórum.



Obrázek

Obrázek


Nahoru 
 Profil  
 
 Předmět příspěvku: Jigsaw / SAW 8 (2017)
 Příspěvek Napsal: 25 zář 2018, 10:57 
Offline
Registrovaní uživatelé

Registrován: 27 led 2016, 20:28
ID Užívateľa: 65951

Online: 7d 54m 39s
Poďakoval: 0 x
Obdržal: 0 x


Částka:
2,498.40



Karma: 0


Jigsaw (2017)
Video/Zdroj: BluRay 1080p
Audio: EN AAC 2ch
Titulky: CZ externé

Obrázek

CSFD / IMDB
Pouze Registrovaní uživatelé mohou prohlížet odkazy v tagu code! Registrujte se anebo se Přihlašte na fórum.


INFO
Citace:
Format : MPEG-4
File size : 1.40 GiB
Duration : 1h 31mn
Overall bit rate : 2 176 Kbps

Video
Format : AVC
Format profile : High@L4.1
Duration : 1h 31mn
Bit rate : 2 050 Kbps
Width : 1 920 pixels
Height : 800 pixels
Display aspect ratio : 2.40:1
Frame rate mode : Constant
Frame rate : 23.976 fps
Color space : YUV
Chroma subsampling : 4:2:0
Bit depth : 8 bits
Scan type : Progressive
Bits/(Pixel*Frame) : 0.056
Stream size : 1.32 GiB (94%)

Audio
Format : AAC
Duration : 1h 31mn
Duration_LastFrame : -11ms
Bit rate mode : Constant
Bit rate : 122 Kbps
Channel(s) : 2 channels
Channel positions : Front: L R
Sampling rate : 48.0 KHz
Frame rate : 46.875 fps (1024 spf)
Compression mode : Lossy
Stream size : 80.1 MiB (6%)


Fastshare
Pouze Registrovaní uživatelé mohou prohlížet odkazy v tagu code! Registrujte se anebo se Přihlašte na fórum.


Nahoru 
 Profil  
 
Zobrazit příspěvky za předchozí:  Seřadit podle  
 
Odeslat nové téma Odpovědět na téma  [ Příspěvků: 3 ] 

Obsah fóra » Filmy download » Filmy Originál / s titulky+novinky (Premiéry)


 
Nemůžete zakládat nová témata v tomto fóru
Nemůžete odpovídat v tomto fóru
Nemůžete upravovat své příspěvky v tomto fóru
Nemůžete mazat své příspěvky v tomto fóru
Nemůžete přikládat soubory v tomto fóru

Hledat:
Přejít na:  







TOPlist
Český překlad – phpBB.cz
Karma functions powered by Karma MOD © 2007, 2009 m157y
phpBB SEO



..:: Žádný ze zobrazených souborů, které můžete nalézt na tomto fóru, nejsou umístěny na tomto serveru. Autoři stránky nenesou zodpovědnost za příspěvky odeslané užívateli,ani za jejich další akce,které by mohli vést k porušování zákonů. Za své příspěvky zodpovídají uživatelé. Nepoužívejte tyto stránky k distribuci a nebo k downloadu jakýchkoliv materiálů, ke kterým nemáte legální oprávnění a nebo licenci ::..