Vítejte na stránkách . Klikněte zde pro registraci

Uživatelské jméno:   Heslo:   Pamätat si ma  Skrýt můj online stav 
Registrovat    Přihlásit se    Fórum    Hledat    FAQ
Bannery     Kontakt   


Informační Panel

:welcome:




www.centralwar.eu
www.centralwar.eu

Obsah fóra » Filmy download » HD filmy a jiné » HD filmy cz/sk




Odeslat nové téma Odpovědět na téma  [ Příspěvků: 2 ] 
Autor Zpráva
 Předmět příspěvku: Bitva o Sevastopol / Bitva za Sevastopol (2015)
 Příspěvek Napsal: 25 led 2017, 12:39 
Offline
Registrovaní uživatelé

Registrován: 29 bře 2015, 15:33
ID Užívateľa: 65221

Bydliště: Slovensko
Online: 2d 18h 56m 38s
Poďakoval: 1 x
Obdržal: 99 x


Částka:
9,316.20



Karma: 0


Bitva o Sevastopol / Battle for Sevastopol (2015)

Bitva.o.Sevastopol.2015.BDRip.1080p.AC3.CZ

Obrázek

Pouze Registrovaní uživatelé mohou prohlížet odkazy v tagu code! Registrujte se anebo se Přihlašte na fórum.



DABING: Česky 5.1, Rusky 5.1

TITULKY : Česke forced

KVALITA:

Pouze Registrovaní uživatelé mohou prohlížet odkazy v tagu code! Registrujte se anebo se Přihlašte na fórum.


DOWNLOAD:


Pouze Registrovaní uživatelé mohou prohlížet odkazy v tagu code! Registrujte se anebo se Přihlašte na fórum.



HESLO NA ROZBALENIE JE:
Pouze Registrovaní uživatelé mohou prohlížet odkazy v tagu code! Registrujte se anebo se Přihlašte na fórum.


Linky na webshare, uloz.to a Fastshare su navzajom kombinovatelne.

Pridany zaznam na opravu dat 3%


Naposledy upravil Stanley dne 21 srp 2018, 12:42, celkově upraveno 1
Smazány mrtvé linky


Nahoru 
 Profil  
 
 Předmět příspěvku: Bitva o Sevastopol / Bitva za Sevastopol (2015)
 Příspěvek Napsal: 21 srp 2018, 11:40 
Online
Registrovaní uživatelé

Registrován: 27 led 2016, 20:28
ID Užívateľa: 65951

Online: 9d 15h 23m 26s
Poďakoval: 0 x
Obdržal: 0 x


Částka:
3,109.15



Karma: 0


Bitva o Sevastopol / Bitva za Sevastopol (2015)
Video/Zdroj: BluRay 1080p
Audio: CZ AC-3 5.1ch, RU AC-3 5.1
Titulky: CZ

Obrázek

CSFD / IMDB
Pouze Registrovaní uživatelé mohou prohlížet odkazy v tagu code! Registrujte se anebo se Přihlašte na fórum.


INFO
Citace:
Format : Matroska
Format version : Version 4 / Version 2
File size : 9.92 GiB
Duration : 2 h 2 min
Overall bit rate : 11.6 Mb/s

Video
Format : AVC
Format profile : High@L4.1
Duration : 2 h 2 min
Bit rate : 10.5 Mb/s
Width : 1 920 pixels
Height : 800 pixels
Display aspect ratio : 2.40:1
Frame rate mode : Constant
Frame rate : 24.000 FPS
Color space : YUV
Chroma subsampling : 4:2:0
Bit depth : 8 bits
Scan type : Progressive
Bits/(Pixel*Frame) : 0.285
Stream size : 8.99 GiB (91%)

Audio #1
Format : AC-3
Duration : 2 h 2 min
Bit rate mode : Constant
Bit rate : 448 kb/s
Channel(s) : 6 channels
Channel positions : Front: L C R, Side: L R, LFE
Sampling rate : 48.0 kHz
Frame rate : 31.250 FPS (1536 SPF)
Bit depth : 16 bits
Compression mode : Lossy
Stream size : 393 MiB (4%)
Language : Czech
Default : Yes
Forced : No

Audio #2
Format : AC-3
Duration : 2 h 2 min
Bit rate mode : Constant
Bit rate : 640 kb/s
Channel(s) : 6 channels
Channel positions : Front: L C R, Side: L R, LFE
Sampling rate : 48.0 kHz
Frame rate : 31.250 FPS (1536 SPF)
Bit depth : 16 bits
Compression mode : Lossy
Stream size : 562 MiB (6%)
Language : Russian
Default : No
Forced : No

Text
Format : UTF-8
Language : Czech
Default : Yes
Forced : No


Fastshare
Pouze Registrovaní uživatelé mohou prohlížet odkazy v tagu code! Registrujte se anebo se Přihlašte na fórum.


Bez hesla. Balené bez kompresie. Pridaný záznam pre opravu dát 5%.


Nahoru 
 Profil  
 
Zobrazit příspěvky za předchozí:  Seřadit podle  
 
Odeslat nové téma Odpovědět na téma  [ Příspěvků: 2 ] 

Obsah fóra » Filmy download » HD filmy a jiné » HD filmy cz/sk


 
Nemůžete zakládat nová témata v tomto fóru
Nemůžete odpovídat v tomto fóru
Nemůžete upravovat své příspěvky v tomto fóru
Nemůžete mazat své příspěvky v tomto fóru
Nemůžete přikládat soubory v tomto fóru

Hledat:
Přejít na:  







TOPlist
Český překlad – phpBB.cz
Karma functions powered by Karma MOD © 2007, 2009 m157y
phpBB SEO



..:: Žádný ze zobrazených souborů, které můžete nalézt na tomto fóru, nejsou umístěny na tomto serveru. Autoři stránky nenesou zodpovědnost za příspěvky odeslané užívateli,ani za jejich další akce,které by mohli vést k porušování zákonů. Za své příspěvky zodpovídají uživatelé. Nepoužívejte tyto stránky k distribuci a nebo k downloadu jakýchkoliv materiálů, ke kterým nemáte legální oprávnění a nebo licenci ::..