Vítejte na stránkách . Klikněte zde pro registraci

Uživatelské jméno:   Heslo:   Pamätat si ma  Skrýt můj online stav 
Registrovat    Přihlásit se    Fórum    Hledat    FAQ
Bannery     Kontakt   


Informační Panel

:welcome:




www.centralwar.eu
www.centralwar.eu

Obsah fóra » Filmy download » HD filmy a jiné » HD filmy cz/sk




Odeslat nové téma Odpovědět na téma  [ Příspěvků: 4 ] 
Autor Zpráva
 Předmět příspěvku: Resident Evil: Poslední kapitola / Resident Evil 6 (2016)
 Příspěvek Napsal: 30 dub 2017, 15:48 
Offline
Registrovaní uživatelé

Registrován: 26 kvě 2015, 02:07
ID Užívateľa: 65331

Online: 9d 21h 42m 25s
Poďakoval: 0 x
Obdržal: 8 x


Částka:
18,958.30



Karma: 0


Resident Evil: Poslední kapitola / Resident Evil 6: The Final Chapter (2016)

CSFD:

Pouze Registrovaní uživatelé mohou prohlížet odkazy v tagu code! Registrujte se anebo se Přihlašte na fórum.


Obrázek

Resident.Evil.The.Final.Chapter.2016.720p.BluRay.x264.DD5.1.CZ
Resident.Evil.The.Final.Chapter.2016.1080p.BluRay.x264.DD5.1.CZ


Resident.Evil.The.Final.Chapter.2016.720p.BluRay.x264.DD5.1.CZ
Jazyk: Czech 5.1 640 Kbps , English 5.1 640 Kbps
Subtitles: Czech forced , Czech , Slovak

iNFO

Pouze Registrovaní uživatelé mohou prohlížet odkazy v tagu code! Registrujte se anebo se Přihlašte na fórum.


Obrázek
Pouze Registrovaní uživatelé mohou prohlížet odkazy v tagu code! Registrujte se anebo se Přihlašte na fórum.

Přidán záznam na opravu dat 5%.
Resident.Evil.The.Final.Chapter.2016.1080p.BluRay.x264.DD5.1.CZ
Jazyk: Czech 5.1 640 Kbps , English 5.1 640 Kbps
Subtitles: Czech forced , Czech , Slovak

iNFO

Pouze Registrovaní uživatelé mohou prohlížet odkazy v tagu code! Registrujte se anebo se Přihlašte na fórum.


Obrázek
Pouze Registrovaní uživatelé mohou prohlížet odkazy v tagu code! Registrujte se anebo se Přihlašte na fórum.

Přidán záznam na opravu dat 5%.


Naposledy upravil Stanley dne 23 črc 2018, 20:58, celkově upraveno 2
Smazány mrtvé linky


Nahoru 
 Profil  
 
 Předmět příspěvku: Resident Evil: Poslední kapitola / Resident Evil 6 (2016)
 Příspěvek Napsal: 01 kvě 2017, 00:15 
Online
Registrovaní uživatelé
Uživatelský avatar

Registrován: 23 kvě 2010, 09:37
ID Užívateľa: 38343

Online: 66d 22h 12m 59s
Poďakoval: 1 x
Obdržal: 2 x


Částka:
21,801.25



Karma: 0


Obrázek
Pouze Registrovaní uživatelé mohou prohlížet odkazy v tagu code! Registrujte se anebo se Přihlašte na fórum.


Akční / Horor / Sci-Fi / Thriller
Německo / Austrálie / Kanada / Francie, 2016, 107 min

Režie: Paul W.S. Anderson
Scénář: Paul W.S. Anderson
Kamera: Glen MacPherson
Hudba: Paul Haslinger
Hrají: Milla Jovovich, Iain Glen, Ali Larter, Shawn Roberts, Sienna Guillory, Urb Johann, Bingbing Li

Obsah
Film přímo navazuje na události snímku Resident Evil: Odveta. Alice (Milla Jovovich) jako jediná přežije klíčový střet s nemrtvými, který měl rozhodnout o osudu lidstva. Nyní se Alice musí vrátit tam, kde celá katastrofa začala - do podzemního komplexu Hive v Raccoon City, kde společnost Umbrella Corporation hromadí své síly a chystá finální útok proti posledním hrstkám lidí, kterým se apokalypsu dosud podařilo přežít.

Obrázek

Velikost souboru : 1,92 GiB
Duration/String : 1h 46mn

Video
Formát : AVC
Bit rate : 2 250 Kbps
Šířka : 1 920 pixely
Výška : 800 pixely
Frame rate : 23,976 (24000/1001) fps

Audio
Formát : AC-3
Bit rate : 384 Kbps
Kanál(y) : 6 kanály
Channel positions : Front: L C R, Side: L R, LFE
Sampling rate : 48,0 KHz
Jazyk : Czech


Titulky FULL + FORCED
Jazyk : Czech
Jazyk : English



Pouze Registrovaní uživatelé mohou prohlížet odkazy v tagu code! Registrujte se anebo se Přihlašte na fórum.

Pouze Registrovaní uživatelé mohou prohlížet odkazy v tagu code! Registrujte se anebo se Přihlašte na fórum.

Obrázek
Obrázek


Nahoru 
 Profil  
 
 Předmět příspěvku: Resident Evil: Poslední kapitola / Resident Evil 6 (2016)
 Příspěvek Napsal: 22 kvě 2017, 05:19 
Offline
Registrovaní uživatelé

Registrován: 24 dub 2017, 22:38
ID Užívateľa: 66577

Online: 11h 4m 2s
Poďakoval: 1 x
Obdržal: 0 x


Částka:
2,560.15



Karma: 0


Resident Evil: Poslední kapitola / Resident Evil: The Final Chapter (2016)(CZ/EN)[720pHD]

Obrázek

Pouze Registrovaní uživatelé mohou prohlížet odkazy v tagu code! Registrujte se anebo se Přihlašte na fórum.


Obsah:Film přímo navazuje na události snímku Resident Evil: Odveta. Alice (Milla Jovovich) jako jediná přežije klíčový střet s nemrtvými, který měl rozhodnout o osudu lidstva. Nyní se Alice musí vrátit tam, kde celá katastrofa začala - do podzemního komplexu Hive v Raccoon City, kde společnost Umbrella Corporation hromadí své síly a chystá finální útok proti posledním hrstkám lidí, kterým se apokalypsu dosud podařilo přežít.

Pouze Registrovaní uživatelé mohou prohlížet odkazy v tagu code! Registrujte se anebo se Přihlašte na fórum.


Pouze Registrovaní uživatelé mohou prohlížet odkazy v tagu code! Registrujte se anebo se Přihlašte na fórum.



PASSNO


Naposledy upravil Stanley dne 23 črc 2018, 21:00, celkově upraveno 1
Smazány mrtvé linky


Nahoru 
 Profil  
 
 Předmět příspěvku: Resident Evil: Poslední kapitola / Resident Evil 6 (2016)
 Příspěvek Napsal: 23 črc 2018, 17:13 
Offline
Registrovaní uživatelé

Registrován: 27 led 2016, 20:28
ID Užívateľa: 65951

Online: 7d 54m 39s
Poďakoval: 0 x
Obdržal: 0 x


Částka:
2,498.40



Karma: 0


Resident Evil: Poslední kapitola / Resident Evil: The Final Chapter (2016)

Video/Zdroj: UHD BluRay 2160p
Audio: CZ AC-3 5.1ch, EN TrueHD/Atmos 8ch, EN DTS 5.1ch, EN AC-3 5.1ch
Titulky: CZ forced, CZ, SK, EN


Obrázek

Pouze Registrovaní uživatelé mohou prohlížet odkazy v tagu code! Registrujte se anebo se Přihlašte na fórum.


Citace:
Format : Matroska
Format version : Version 4 / Version 2
File size : 15.6 GiB
Duration : 1 h 46 min
Overall bit rate mode : Variable
Overall bit rate : 21.0 Mb/s

Video
Format : HEVC
Format profile : Main 10@L5.1@High
Codec ID : V_MPEGH/ISO/HEVC
Duration : 1 h 46 min
Bit rate : 12.6 Mb/s
Width : 3 840 pixels
Height : 1 600 pixels
Display aspect ratio : 2.40:1
Frame rate mode : Constant
Frame rate : 23.976 (24000/1001) FPS
Color space : YUV
Chroma subsampling : 4:2:0 (Type 2)
Bit depth : 10 bits
Bits/(Pixel*Frame) : 0.085
Stream size : 9.36 GiB (60%)

Audio #1
Format : AC-3
Duration : 1 h 46 min
Bit rate mode : Constant
Bit rate : 640 kb/s
Channel(s) : 6 channels
Channel positions : Front: L C R, Side: L R, LFE
Sampling rate : 48.0 kHz
Frame rate : 31.250 FPS (1536 SPF)
Bit depth : 16 bits
Compression mode : Lossy
Stream size : 488 MiB (3%)
Language : Czech
Default : Yes
Forced : No

Audio #2
Format : TrueHD
Format profile : TrueHD+Atmos / TrueHD
Duration : 1 h 46 min
Bit rate mode : Variable
Bit rate : 5 532 kb/s
Maximum bit rate : 8 673 kb/s
Channel(s) : Object Based / 8 channels
Channel positions : Object Based / Front: L C R, Side: L R, Back: L R, LFE
Sampling rate : / 48.0 kHz
Frame rate : 1 200.000 FPS (40 SPF)
Compression mode : Lossless
Stream size : 4.12 GiB (26%)
Language : English
Default : No
Forced : No

Audio #3
Format : DTS
Duration : 1 h 46 min
Bit rate mode : Constant
Bit rate : 1 509 kb/s
Channel(s) : 6 channels
Channel positions : Front: L C R, Side: L R, LFE
Sampling rate : 48.0 kHz
Frame rate : 93.750 FPS (512 SPF)
Bit depth : 24 bits
Compression mode : Lossy
Stream size : 1.12 GiB (7%)
Language : English
Default : No
Forced : No

Audio #4
Format : AC-3
Duration : 1 h 46 min
Bit rate mode : Constant
Bit rate : 640 kb/s
Channel(s) : 6 channels
Channel positions : Front: L C R, Side: L R, LFE
Sampling rate : 48.0 kHz
Frame rate : 31.250 FPS (1536 SPF)
Bit depth : 16 bits
Compression mode : Lossy
Stream size : 488 MiB (3%)
Language : English
Default : No
Forced : No

Text #1
Format : UTF-8
Language : Czech
Default : Yes
Forced : Yes

Text #2
Format : PGS
Language : Czech
Default : No
Forced : Yes

Text #3
Format : PGS
Language : Czech
Default : No
Forced : No

Text #4
Format : PGS
Language : Slovak
Default : No
Forced : No

Text #5
Format : UTF-8
Language : English
Default : No
Forced : No

Text #6
Format : PGS
Language : English
Default : No
Forced : No


Fastshare
Pouze Registrovaní uživatelé mohou prohlížet odkazy v tagu code! Registrujte se anebo se Přihlašte na fórum.


Bez hesla. Balené bez kompresie. Pridaný záznam pre opravu dát 5%.


Nahoru 
 Profil  
 
Zobrazit příspěvky za předchozí:  Seřadit podle  
 
Odeslat nové téma Odpovědět na téma  [ Příspěvků: 4 ] 

Obsah fóra » Filmy download » HD filmy a jiné » HD filmy cz/sk


 
Nemůžete zakládat nová témata v tomto fóru
Nemůžete odpovídat v tomto fóru
Nemůžete upravovat své příspěvky v tomto fóru
Nemůžete mazat své příspěvky v tomto fóru
Nemůžete přikládat soubory v tomto fóru

Hledat:
Přejít na:  







cron
TOPlist
Český překlad – phpBB.cz
Karma functions powered by Karma MOD © 2007, 2009 m157y
phpBB SEO



..:: Žádný ze zobrazených souborů, které můžete nalézt na tomto fóru, nejsou umístěny na tomto serveru. Autoři stránky nenesou zodpovědnost za příspěvky odeslané užívateli,ani za jejich další akce,které by mohli vést k porušování zákonů. Za své příspěvky zodpovídají uživatelé. Nepoužívejte tyto stránky k distribuci a nebo k downloadu jakýchkoliv materiálů, ke kterým nemáte legální oprávnění a nebo licenci ::..