Vítejte na stránkách . Klikněte zde pro registraci

Uživatelské jméno:   Heslo:   Pamätat si ma  Skrýt můj online stav 
Registrovat    Přihlásit se    Fórum    Hledat    FAQ
Bannery     Kontakt   


Informační Panel

:welcome:




www.centralwar.eu
www.centralwar.eu

Obsah fóra » Filmy download » HD filmy a jiné » HD filmy cz/sk




Odeslat nové téma Odpovědět na téma  [ Příspěvků: 2 ] 
Autor Zpráva
 Předmět příspěvku: Tomb Raider / Tomb Raider (2018)
 Příspěvek Napsal: 16 čer 2018, 02:08 
Offline
Registrovaní uživatelé

Registrován: 26 kvě 2015, 02:07
ID Užívateľa: 65331

Online: 9d 20h 23m 20s
Poďakoval: 0 x
Obdržal: 8 x


Částka:
19,133.50



Karma: 0


Tomb Raider (2018)

CSFD:

Pouze Registrovaní uživatelé mohou prohlížet odkazy v tagu code! Registrujte se anebo se Přihlašte na fórum.


Obrázek

Tomb.Raider.2018.720p.BluRay.x264.DD5.1.CZ
Tomb.Raider.2018.1080p.BluRay.x264.DD5.1.CZ
Tomb.Raider.2018.1080p.BluRay.DTS.REMUX.AVC.DD5.1.CZ


Tomb.Raider.2018.720p.BluRay.x264.DD5.1.CZ
Jazyk: Czech 5,1 448 Kbps , English 5.1 640 Kbps
Subtitles: Czech forced , Czech , English forced , English

iNFO

Pouze Registrovaní uživatelé mohou prohlížet odkazy v tagu code! Registrujte se anebo se Přihlašte na fórum.


Obrázek
Pouze Registrovaní uživatelé mohou prohlížet odkazy v tagu code! Registrujte se anebo se Přihlašte na fórum.

Pouze Registrovaní uživatelé mohou prohlížet odkazy v tagu code! Registrujte se anebo se Přihlašte na fórum.

Přidán záznam na opravu dat 3%.

Tomb.Raider.2018.1080p.BluRay.x264.DD5.1.CZ
Jazyk: Czech 5,1 448 Kbps , English 5.1 640 Kbps
Subtitles: Czech forced , Czech , English forced , English

iNFO

Pouze Registrovaní uživatelé mohou prohlížet odkazy v tagu code! Registrujte se anebo se Přihlašte na fórum.


Obrázek
Pouze Registrovaní uživatelé mohou prohlížet odkazy v tagu code! Registrujte se anebo se Přihlašte na fórum.

Pouze Registrovaní uživatelé mohou prohlížet odkazy v tagu code! Registrujte se anebo se Přihlašte na fórum.

Přidán záznam na opravu dat 3%.

Tomb.Raider.2018.1080p.BluRay.DTS.REMUX.AVC.DD5.1.CZ
Jazyk: Czech 5.1 448 Kbps , English 5.1 DTS 1 509 Kbps
Subtitles: Czech forced , Czech , English forced , English

iNFO

Pouze Registrovaní uživatelé mohou prohlížet odkazy v tagu code! Registrujte se anebo se Přihlašte na fórum.


Obrázek
Pouze Registrovaní uživatelé mohou prohlížet odkazy v tagu code! Registrujte se anebo se Přihlašte na fórum.

Pouze Registrovaní uživatelé mohou prohlížet odkazy v tagu code! Registrujte se anebo se Přihlašte na fórum.

Přidán záznam na opravu dat 3%.


Naposledy upravil browing3006 dne 19 čer 2018, 05:59, celkově upraveno 4

Nahoru 
 Profil  
 
 Předmět příspěvku: Tomb Raider / Tomb Raider (2018)
 Příspěvek Napsal: 22 čer 2018, 14:38 
Offline
Registrovaní uživatelé

Registrován: 27 led 2016, 20:28
ID Užívateľa: 65951

Online: 3d 20m 49s
Poďakoval: 0 x
Obdržal: 0 x


Částka:
1,847.45



Karma: 0


Tomb Raider (2018)

Obrázek

Pouze Registrovaní uživatelé mohou prohlížet odkazy v tagu code! Registrujte se anebo se Přihlašte na fórum.



Video/Zdroj: Bluray 1080p
Jazyk: CZ 5.1ch AC-3, EN 5.1ch AC-3
Titulky: CZ, EN


Citace:
Formát : Matroska
Format_Version : Version 4 / Version 2
Velikost souboru : 13,2 GiB
Duration/String : 1h 57mn
Celkový BitRate : 16,1 Mbps

Video
Formát : AVC
Format_Profile : High@L4.1
Duration/String : 1h 57mn
Bit rate : 15,0 Mbps
Šířka : 1 920pixely
Výška : 800pixely
Poměr stran : 2,40:1
Frame rate : 23,976 fps
ColorSpace : YUV
ChromaSubsampling : 4:2:0
BitDepth/String : 8 bits
ScanType/String : Progressive
Bits/(Pixel*Frame) : 0.407
StreamSize/String : 12,1 GiB (91%)

Audio #1
Formát : AC-3
Duration/String : 1h 57mn
Bit rate : 640 Kbps
Kanál(y) : 6 kanály
Channel positions : Front: L C R, Side: L R, LFE
Sampling rate : 48,0 KHz
BitDepth/String : 16 bits
StreamSize/String : 539 MiB (4%)
Jazyk : English
Default : Ne
Forced : Ne

Audio #2
Formát : AC-3
Duration/String : 1h 57mn
Bit rate : 448 Kbps
Kanál(y) : 6 kanály
Channel positions : Front: L C R, Side: L R, LFE
Sampling rate : 48,0 KHz
BitDepth/String : 16 bits
StreamSize/String : 378 MiB (3%)
Jazyk : Czech
Default : Ano
Forced : Ano

Text #1
Formát : UTF-8
Titul : Czech Forced
Jazyk : Czech
Default : Ano
Forced : Ano

Text #2
Formát : UTF-8
Titul : Czech Full
Jazyk : Czech
Default : Ne
Forced : Ne

Text #3
Formát : UTF-8
Titul : Forced
Jazyk : English
Default : Ne
Forced : Ne

Text #4
Formát : UTF-8
Jazyk : English
Default : Ne
Forced : Ne


Fastshare
Pouze Registrovaní uživatelé mohou prohlížet odkazy v tagu code! Registrujte se anebo se Přihlašte na fórum.


-------------------------------------------------------------------------------------------------------------------------------------------------------------------------------------------------------------------------------


Video/Zdoj: BluRay UHD 2160p
Audio: CZ 5.1ch AC-3, EN 7.1ch TrueHD / Dolby Atmos, EN 5.1ch AC-3
Titulky: CZ, EN


Citace:
Format : Matroska
Format version : Version 4 / Version 2
File size : 46.6 GiB
Duration : 1 h 57 min
Overall bit rate mode : Variable
Overall bit rate : 56.6 Mb/s

Video
Format : HEVC
Format profile : Main 10@L5.1@High
Codec ID : V_MPEGH/ISO/HEVC
Duration : 1 h 57 min
Bit rate : 52.4 Mb/s
Width : 3 840 pixels
Height : 2 160 pixels
Display aspect ratio : 16:9
Frame rate mode : Constant
Frame rate : 23.976 (24000/1001) FPS
Color space : YUV
Chroma subsampling : 4:2:0 (Type 2)
Bit depth : 10 bits
Bits/(Pixel*Frame) : 0.264
Stream size : 43.1 GiB (93%)

Audio #1
Format : AC-3
Duration : 1 h 57 min
Bit rate mode : Constant
Bit rate : 448 kb/s
Channel(s) : 6 channels
Channel positions : Front: L C R, Side: L R, LFE
Sampling rate : 48.0 kHz
Frame rate : 31.250 FPS (1536 SPF)
Bit depth : 16 bits
Compression mode : Lossy
Stream size : 378 MiB (1%)
Language : Czech
Service kind : Complete Main
Default : Yes
Forced : No

Audio #2
Format : TrueHD
Format profile : TrueHD+Atmos / TrueHD
Duration : 1 h 57 min
Bit rate mode : Variable
Bit rate : 3 214 kb/s
Maximum bit rate : 5 520 kb/s
Channel(s) : Object Based / 8 channels
Channel positions : Object Based / Front: L C R, Side: L R, Back: L R, LFE
Sampling rate : / 48.0 kHz
Frame rate : 1 200.000 FPS (40 SPF)
Compression mode : Lossless
Stream size : 2.64 GiB (6%)
Language : English
Default : No
Forced : No

Audio #3
Format : AC-3
Duration : 1 h 57 min
Bit rate mode : Constant
Bit rate : 448 kb/s
Channel(s) : 6 channels
Channel positions : Front: L C R, Side: L R, LFE
Sampling rate : 48.0 kHz
Frame rate : 31.250 FPS (1536 SPF)
Bit depth : 16 bits
Compression mode : Lossy
Stream size : 378 MiB (1%)
Language : English
Service kind : Complete Main
Default : No
Forced : No

Text #1
Format : UTF-8
Language : Czech
Default : Yes
Forced : No

Text #2
Format : UTF-8
Language : Czech
Default : No
Forced : No

Text #3
Format : UTF-8
Language : English
Default : No
Forced : No

Text #4
Format : UTF-8
Language : English
Default : No
Forced : No


Fastshare
Pouze Registrovaní uživatelé mohou prohlížet odkazy v tagu code! Registrujte se anebo se Přihlašte na fórum.


Balené bez kompresie. Bez hesla. Pridaný záznam pre opravu dát 5%.


Naposledy upravil Sonty1 dne 06 črc 2018, 10:26, celkově upraveno 1

Nahoru 
 Profil  
 
Zobrazit příspěvky za předchozí:  Seřadit podle  
 
Odeslat nové téma Odpovědět na téma  [ Příspěvků: 2 ] 

Obsah fóra » Filmy download » HD filmy a jiné » HD filmy cz/sk


 
Nemůžete zakládat nová témata v tomto fóru
Nemůžete odpovídat v tomto fóru
Nemůžete upravovat své příspěvky v tomto fóru
Nemůžete mazat své příspěvky v tomto fóru
Nemůžete přikládat soubory v tomto fóru

Hledat:
Přejít na:  







TOPlist
Český překlad – phpBB.cz
Karma functions powered by Karma MOD © 2007, 2009 m157y
phpBB SEO



..:: Žádný ze zobrazených souborů, které můžete nalézt na tomto fóru, nejsou umístěny na tomto serveru. Autoři stránky nenesou zodpovědnost za příspěvky odeslané užívateli,ani za jejich další akce,které by mohli vést k porušování zákonů. Za své příspěvky zodpovídají uživatelé. Nepoužívejte tyto stránky k distribuci a nebo k downloadu jakýchkoliv materiálů, ke kterým nemáte legální oprávnění a nebo licenci ::..