Vítejte na stránkách . Klikněte zde pro registraci

Uživatelské jméno:   Heslo:   Pamätat si ma  Skrýt můj online stav 
Registrovat    Přihlásit se    Fórum    Hledat    FAQ
Bannery     Kontakt   


Informační Panel

:welcome:




www.centralwar.eu
www.centralwar.eu

Obsah fóra » Filmy download » HD filmy a jiné » HD filmy cz/sk




Odeslat nové téma Odpovědět na téma  [ Příspěvků: 2 ] 
Autor Zpráva
 Předmět příspěvku: Rázová vlna / Shock Wave (2017)
 Příspěvek Napsal: 28 čer 2018, 06:19 
Offline
Registrovaní uživatelé

Registrován: 26 kvě 2015, 02:07
ID Užívateľa: 65331

Online: 9d 21h 42m 25s
Poďakoval: 0 x
Obdržal: 8 x


Částka:
18,773.00



Karma: 0


Rázová vlna / Shock Wave (2017)

CSFD:

Pouze Registrovaní uživatelé mohou prohlížet odkazy v tagu code! Registrujte se anebo se Přihlašte na fórum.


Obrázek

Shock.Wave.2017.720p.BluRay.x264.CZ
Shock.Wave.2017.1080p.BluRay.x264.CZ


Shock.Wave.2017.720p.BluRay.x264.CZ
Jazyk: Czech 2.0 224 Kbps , Chinese 5.1 640 Kbps
Subtitles: Czech

iNFO

Pouze Registrovaní uživatelé mohou prohlížet odkazy v tagu code! Registrujte se anebo se Přihlašte na fórum.


Obrázek
Pouze Registrovaní uživatelé mohou prohlížet odkazy v tagu code! Registrujte se anebo se Přihlašte na fórum.

Pouze Registrovaní uživatelé mohou prohlížet odkazy v tagu code! Registrujte se anebo se Přihlašte na fórum.

Přidán záznam na opravu dat 3%.

]Shock.Wave.2017.1080p.BluRay.x264.CZ
Jazyk: Czech 2.0 224 Kbps , Chinese 5.1 640 Kbps
Subtitles: Czech

iNFO

Pouze Registrovaní uživatelé mohou prohlížet odkazy v tagu code! Registrujte se anebo se Přihlašte na fórum.


Obrázek
Pouze Registrovaní uživatelé mohou prohlížet odkazy v tagu code! Registrujte se anebo se Přihlašte na fórum.

Pouze Registrovaní uživatelé mohou prohlížet odkazy v tagu code! Registrujte se anebo se Přihlašte na fórum.

Přidán záznam na opravu dat 3%.


Naposledy upravil browing3006 dne 28 čer 2018, 17:15, celkově upraveno 2

Nahoru 
 Profil  
 
 Předmět příspěvku: Rázová vlna / Shock Wave (2017)
 Příspěvek Napsal: 23 črc 2018, 16:31 
Online
Registrovaní uživatelé

Registrován: 27 led 2016, 20:28
ID Užívateľa: 65951

Online: 9d 15h 23m 26s
Poďakoval: 0 x
Obdržal: 0 x


Částka:
3,109.15



Karma: 0


Rázová vlna / /Chai dan zhuan jia / Shock Wave (2017)
Video/Zdroj: BluRay 1080p
Audio: CZ AC-3 2ch, CN AC-3 5.1ch
Titulky: CZ

Obrázek

Pouze Registrovaní uživatelé mohou prohlížet odkazy v tagu code! Registrujte se anebo se Přihlašte na fórum.


Citace:
Format : Matroska
Format version : Version 4 / Version 2
File size : 11.6 GiB
Duration : 1 h 58 min
Overall bit rate : 14.1 Mb/s

Video
Format : AVC
Format profile : High@L4.1
Duration : 1 h 58 min
Bit rate : 13.2 Mb/s
Width : 1 920 pixels
Height : 804 pixels
Display aspect ratio : 2.40:1
Frame rate mode : Constant
Frame rate : 24.000 FPS
Color space : YUV
Chroma subsampling : 4:2:0
Bit depth : 8 bits
Scan type : Progressive
Bits/(Pixel*Frame) : 0.357
Stream size : 10.7 GiB (92%)

Audio #1
Format : AC-3
Duration : 1 h 58 min
Bit rate mode : Constant
Bit rate : 640 kb/s
Channel(s) : 6 channels
Channel positions : Front: L C R, Side: L R, LFE
Sampling rate : 48.0 kHz
Frame rate : 31.250 FPS (1536 SPF)
Bit depth : 16 bits
Compression mode : Lossy
Stream size : 542 MiB (5%)
Title : DD 5.1 @ 640kbps
Language : Chinese
Default : No
Forced : No

Audio #2
Format : AC-3
Duration : 1 h 58 min
Bit rate mode : Constant
Bit rate : 224 kb/s
Channel(s) : 2 channels
Channel positions : Front: L R
Sampling rate : 48.0 kHz
Frame rate : 31.250 FPS (1536 SPF)
Bit depth : 16 bits
Compression mode : Lossy
Stream size : 190 MiB (2%)
Title : DD 2.0 @ 224kbps
Language : Czech
Default : Yes
Forced : Yes

Text
Format : UTF-8
Language : Czech
Default : No
Forced : No


Fastshare
Pouze Registrovaní uživatelé mohou prohlížet odkazy v tagu code! Registrujte se anebo se Přihlašte na fórum.


Bez hesla. Balené bez kompresie. Pridaný záznam pre opravu dát 5%.


Nahoru 
 Profil  
 
Zobrazit příspěvky za předchozí:  Seřadit podle  
 
Odeslat nové téma Odpovědět na téma  [ Příspěvků: 2 ] 

Obsah fóra » Filmy download » HD filmy a jiné » HD filmy cz/sk


 
Nemůžete zakládat nová témata v tomto fóru
Nemůžete odpovídat v tomto fóru
Nemůžete upravovat své příspěvky v tomto fóru
Nemůžete mazat své příspěvky v tomto fóru
Nemůžete přikládat soubory v tomto fóru

Hledat:
Přejít na:  







TOPlist
Český překlad – phpBB.cz
Karma functions powered by Karma MOD © 2007, 2009 m157y
phpBB SEO



..:: Žádný ze zobrazených souborů, které můžete nalézt na tomto fóru, nejsou umístěny na tomto serveru. Autoři stránky nenesou zodpovědnost za příspěvky odeslané užívateli,ani za jejich další akce,které by mohli vést k porušování zákonů. Za své příspěvky zodpovídají uživatelé. Nepoužívejte tyto stránky k distribuci a nebo k downloadu jakýchkoliv materiálů, ke kterým nemáte legální oprávnění a nebo licenci ::..