Vítejte na stránkách . Klikněte zde pro registraci

Uživatelské jméno:   Heslo:   Pamätat si ma  Skrýt můj online stav 
Registrovat    Přihlásit se    Fórum    Hledat    FAQ
Bannery     Kontakt   


Informační Panel

wel




www.centralwar.eu
www.centralwar.eu

Obsah fóra » Filmy download » HD filmy a jiné » HD filmy cz/sk




Odeslat nové téma Odpovědět na téma  [ Příspěvků: 2 ] 
Autor Zpráva
 Předmět příspěvku: Avengers: Infinity War / Avengers: Infinity War (2018)
 Příspěvek Napsal: 05 zář 2018, 15:13 
Offline
Registrovaní uživatelé
Uživatelský avatar

Registrován: 01 zář 2016, 21:25
ID Užívateľa: 66261

Online: 4d 3h 18m 59s
Poďakoval: 0 x
Obdržal: 6 x


Částka:
14,252.25



Karma: 0


Avengers: Infinity War (2018)

Obrázek

Akční / Dobrodružný / Fantasy / Sci-Fi
USA, 2018, 149 min


OBSAH
Snímek Avengers: Infinity War završuje neuvěřitelnou desetiletou cestu filmovým světem studia Marvel a přináší na stříbrná plátna nejsmrtonosnější a nejultimátnější válku všech dob...

ObrázekObrázek
Pouze Registrovaní uživatelé mohou prohlížet odkazy v tagu code! Registrujte se anebo se Přihlašte na fórum.


Zvuk: český (6CH bluray), anglický (6CH bluray)
Titulky: české-vynucené, české, anglické


MEDIA-INFO
Avengers: Infinity War (2018) BluRay REMUX 1080p CZ EN 6CH
Pouze Registrovaní uživatelé mohou prohlížet odkazy v tagu code! Registrujte se anebo se Přihlašte na fórum.


DOWNLOAD
Pouze Registrovaní uživatelé mohou prohlížet odkazy v tagu code! Registrujte se anebo se Přihlašte na fórum.

_________________
V případě že ukazuje po stažení souboru z Fastshare u souboru 0MB je to způsobeno že to stahujete přes volné stahování, soubory jsou v pořádku a při stažení přes kredit je i velikost těchto souborů v pořádku.


Naposledy upravil draha dne 20 zář 2018, 18:30, celkově upraveno 2
vymazány mrtvé linky


Nahoru 
 Profil  
 
 Předmět příspěvku: Avengers: Infinity War / Avengers: Infinity War (2018)
 Příspěvek Napsal: 20 zář 2018, 10:01 
Offline
Registrovaní uživatelé

Registrován: 27 led 2016, 20:28
ID Užívateľa: 65951

Online: 10d 23h 11m 51s
Poďakoval: 0 x
Obdržal: 0 x


Částka:
3,751.25



Karma: 0


Avengers: Infinity War / Avengers: Infinity War (2018)

Video: BluRay 1080p
Audio: CZ AC-3 5.1ch, EN TrueHD+Atmos 7.1ch, EN AC-3 5.1ch
Titulky: CZ, EN forced, EN


Obrázek

CSFD / IMDB
Pouze Registrovaní uživatelé mohou prohlížet odkazy v tagu code! Registrujte se anebo se Přihlašte na fórum.


INFO
Citace:
Format : Matroska
Format version : Version 4 / Version 2
File size : 16.6 GiB
Duration : 2 h 29 min
Overall bit rate mode : Variable
Overall bit rate : 15.9 Mb/s

Video
Format : AVC
Format profile : High@L4.1
Duration : 2 h 29 min
Bit rate : 10.0 Mb/s
Width : 1 920 pixels
Height : 808 pixels
Display aspect ratio : 2.40:1
Frame rate mode : Constant
Frame rate : 23.976 (24000/1001) FPS
Color space : YUV
Chroma subsampling : 4:2:0
Bit depth : 8 bits
Scan type : Progressive
Bits/(Pixel*Frame) : 0.269
Stream size : 10.4 GiB (63%)

Audio #1
Format : AC-3
Duration : 2 h 29 min
Bit rate mode : Constant
Bit rate : 640 kb/s
Channel(s) : 6 channels
Channel positions : Front: L C R, Side: L R, LFE
Sampling rate : 48.0 kHz
Frame rate : 31.250 FPS (1536 SPF)
Bit depth : 16 bits
Compression mode : Lossy
Stream size : 684 MiB (4%)
Language : Czech
Default : No
Forced : No

Audio #2
Format : TrueHD
Format profile : TrueHD+Atmos / TrueHD
Duration : 2 h 29 min
Bit rate mode : Variable
Bit rate : 4 534 kb/s
Maximum bit rate : 6 930 kb/s
Channel(s) : Object Based / 8 channels
Channel positions : Object Based / Front: L C R, Side: L R, Back: L R, LFE
Sampling rate : / 48.0 kHz
Frame rate : 1 200.000 FPS (40 SPF)
Compression mode : Lossless
Delay relative to video : 33 ms
Stream size : 4.73 GiB (29%)
Language : English
Default : Yes
Forced : No

Audio #3
Format : AC-3
Duration : 2 h 29 min
Bit rate mode : Constant
Bit rate : 640 kb/s
Channel(s) : 6 channels
Channel positions : Front: L C R, Side: L R, LFE
Sampling rate : 48.0 kHz
Frame rate : 31.250 FPS (1536 SPF)
Bit depth : 16 bits
Compression mode : Lossy
Delay relative to video : 32 ms
Stream size : 684 MiB (4%)
Language : English
Default : No
Forced : No

Text #1
Format : UTF-8
Language : Czech
Default : No
Forced : No

Text #2
Format : UTF-8
Language : English
Default : Yes
Forced : Yes

Text #3
Format : UTF-8
Language : English
Default : No
Forced : No

Text #4
Format : UTF-8
Language : English
Default : No
Forced : No

Text #5
Format : PGS
Language : English
Default : No
Forced : No


FASTSHARE
Pouze Registrovaní uživatelé mohou prohlížet odkazy v tagu code! Registrujte se anebo se Přihlašte na fórum.


Bez hesla. Balené bez kompresie. Pridaný záznam pre opravu dát 5%.


Naposledy upravil Sonty1 dne 19 kvě 2019, 11:00, celkově upraveno 3

Nahoru 
 Profil  
 
Zobrazit příspěvky za předchozí:  Seřadit podle  
 
Odeslat nové téma Odpovědět na téma  [ Příspěvků: 2 ] 

Obsah fóra » Filmy download » HD filmy a jiné » HD filmy cz/sk


 
Nemůžete zakládat nová témata v tomto fóru
Nemůžete odpovídat v tomto fóru
Nemůžete upravovat své příspěvky v tomto fóru
Nemůžete mazat své příspěvky v tomto fóru
Nemůžete přikládat soubory v tomto fóru

Hledat:
Přejít na:  







cron
TOPlist
Český překlad – phpBB.cz
Karma functions powered by Karma MOD © 2007, 2009 m157y
phpBB SEO



..:: Žádný ze zobrazených souborů, které můžete nalézt na tomto fóru, nejsou umístěny na tomto serveru. Autoři stránky nenesou zodpovědnost za příspěvky odeslané užívateli,ani za jejich další akce,které by mohli vést k porušování zákonů. Za své příspěvky zodpovídají uživatelé. Nepoužívejte tyto stránky k distribuci a nebo k downloadu jakýchkoliv materiálů, ke kterým nemáte legální oprávnění a nebo licenci ::..