Vítejte na stránkách . Klikněte zde pro registraci

Uživatelské jméno:   Heslo:   Pamätat si ma  Skrýt můj online stav 
Registrovat    Přihlásit se    Fórum    Hledat    FAQ
Bannery     Kontakt   


Informační Panel

:welcome:




www.centralwar.eu
www.centralwar.eu

Obsah fóra » Filmy download » HD filmy a jiné » HD filmy cz/sk




Odeslat nové téma Odpovědět na téma  [ Příspěvek: 1 ] 
Autor Zpráva
 Předmět příspěvku: Piráti z Karibiku: Prokletí Černé perly / Curse of... (2003)
 Příspěvek Napsal: 05 zář 2018, 14:32 
Offline
Registrovaní uživatelé

Registrován: 04 pro 2015, 22:42
ID Užívateľa: 65833

Online: 8d 4h 51m 39s
Poďakoval: 0 x
Obdržal: 1 x


Částka:
3,499.45



Karma: 0


Piráti z Karibiku-Prokletí Černé perly (2003)BRRip [x264-720p] DD 5.1 CZ-EN

Obrázek

info

Pouze Registrovaní uživatelé mohou prohlížet odkazy v tagu code! Registrujte se anebo se Přihlašte na fórum.


Citace:
Třpytivé vody Karibiku jsou pro darebáckého, ale šarmantního kapitána Jacka Sparrowa nevyčerpatelným zdrojem tajemných a vzrušujících dobrodružství. Jeho idylický život se však razantně změní ve chvíli, kdy se lstivý kapitán Barbossa zmocní jeho lodi Černá perla a napadne město Port Royal, odkud unese guvernérovu okouzlující dceru Elizabeth Swann. Její kamarád z dětství Will Turner se spolu s Jackem vydává na palubě nejrychlejší lodi britské flotily na odvážnou výpravu za záchranou Elizabeth a ukradené Černé perly. V patách je jim Elizabethin snoubenec, sympatický a ctižádostivý Commodore Norrington. Will ale netuší, že je Barbossa i s celou svou pirátskou posádkou pod vlivem prokletí, které jej odsuzuje k věčnému životu ve světě nemrtvých a každou noc jej proměňuje v živého kostlivce. Kletbu může zlomit pouze vrácení ukradené části prokletého pokladu na jeho původní místo. Posádky obou lodí se vydávají vstříc vzrušujícímu střetnutí s Barbossou na tajemný ostrov Isla de Muerta. Když pak pozvednou své meče k souboji s obávanými piráty Karibiku, je v sázce Jackova pomsta, Černá perla, zapomenutý poklad, zlomení kletby nad Barbossou a jeho posádkou, osud britské námořní flotily a v neposlední řadě také životy našich statečných hrdinů.(oficiální text distributora)


kvalita

Citace:
General
Unique ID : 251197091842823518723843317676666892633 (0xBCFACCD42905E8DFA088DAA214B5B159)
Complete name : E:\Piráti z Karibiku-Prokletí Černé perly (2003)BRRip [x264-720p] DD 5.1 CZ-EN.mkv
Format : Matroska
Format version : Version 2
File size : 3.18 GiB
Duration : 2h 23mn
Overall bit rate : 3 168 Kbps
Movie name : m720p-movie.net
Encoded date : UTC 2011-04-13 09:21:51
Writing application : mkvmerge v4.4.0 ('Die Wiederkehr') built on Oct 31 2010 21:52:48
Writing library : libebml v1.0.0 + libmatroska v1.0.0

Video
ID : 1
Format : AVC
Format/Info : Advanced Video Codec
Format profile : High@L5
Format settings, CABAC : Yes
Format settings, ReFrames : 14 frames
Codec ID : V_MPEG4/ISO/AVC
Duration : 2h 23mn
Bit rate : 2 150 Kbps
Width : 1 280 pixels
Height : 528 pixels
Display aspect ratio : 2.40:1
Frame rate mode : Constant
Frame rate : 23.976 fps
Color space : YUV
Chroma subsampling : 4:2:0
Bit depth : 8 bits
Scan type : Progressive
Bits/(Pixel*Frame) : 0.133
Stream size : 2.09 GiB (66%)
Title : m720p-movie.net
Writing library : x264 core 65 r999 cc51047
Encoding settings : cabac=1 / ref=14 / deblock=1:-2:0 / analyse=0x3:0x133 / me=umh / subme=8 / psy_rd=1.0:0.0 / mixed_ref=1 / me_range=32 / chroma_me=1 / trellis=0 / 8x8dct=1 / cqm=0 / deadzone=21,11 / chroma_qp_offset=-2 / threads=3 / nr=0 / decimate=1 / mbaff=0 / bframes=5 / b_pyramid=1 / b_adapt=2 / b_bias=0 / direct=3 / wpredb=1 / keyint=250 / keyint_min=25 / scenecut=40(pre) / rc=2pass / bitrate=2150 / ratetol=1.0 / qcomp=0.60 / qpmin=10 / qpmax=51 / qpstep=4 / cplxblur=20.0 / qblur=0.5 / ip_ratio=1.40 / pb_ratio=1.30 / aq=1:1.00
Default : Yes
Forced : No

Audio #1
ID : 2
Format : AC-3
Format/Info : Audio Coding 3
Mode extension : CM (complete main)
Format settings, Endianness : Big
Codec ID : A_AC3
Duration : 2h 23mn
Bit rate mode : Constant
Bit rate : 384 Kbps
Channel(s) : 6 channels
Channel positions : Front: L C R, Side: L R, LFE
Sampling rate : 48.0 KHz
Compression mode : Lossy
Stream size : 395 MiB (12%)
Title : DD 5.1 ENG
Language : English
Default : No
Forced : No

Audio #2
ID : 4
Format : AC-3
Format/Info : Audio Coding 3
Mode extension : CM (complete main)
Format settings, Endianness : Big
Codec ID : A_AC3
Duration : 2h 23mn
Bit rate mode : Constant
Bit rate : 640 Kbps
Channel(s) : 6 channels
Channel positions : Front: L C R, Side: L R, LFE
Sampling rate : 48.0 KHz
Compression mode : Lossy
Delay relative to video : 24ms
Stream size : 658 MiB (20%)
Title : DD 5.1 CZ
Language : Czech
Default : Yes
Forced : No

Text #1
ID : 3
Format : ASS
Codec ID : S_TEXT/ASS
Codec ID/Info : Advanced Sub Station Alpha
Compression mode : Lossless
Title : ENG
Language : English
Default : No
Forced : No

Text #2
ID : 5
Format : UTF-8
Codec ID : S_TEXT/UTF8
Codec ID/Info : UTF-8 Plain Text
Title : CZ
Language : Czech
Default : Yes
Forced : No


download

Pouze Registrovaní uživatelé mohou prohlížet odkazy v tagu code! Registrujte se anebo se Přihlašte na fórum.


Naposledy upravil Stanley dne 05 zář 2018, 19:48, celkově upraveno 2
Přidána ikonka serveru


Nahoru 
 Profil  
 
Zobrazit příspěvky za předchozí:  Seřadit podle  
 
Odeslat nové téma Odpovědět na téma  [ Příspěvek: 1 ] 

Obsah fóra » Filmy download » HD filmy a jiné » HD filmy cz/sk


 
Nemůžete zakládat nová témata v tomto fóru
Nemůžete odpovídat v tomto fóru
Nemůžete upravovat své příspěvky v tomto fóru
Nemůžete mazat své příspěvky v tomto fóru
Nemůžete přikládat soubory v tomto fóru

Hledat:
Přejít na:  







cron
TOPlist
Český překlad – phpBB.cz
Karma functions powered by Karma MOD © 2007, 2009 m157y
phpBB SEO



..:: Žádný ze zobrazených souborů, které můžete nalézt na tomto fóru, nejsou umístěny na tomto serveru. Autoři stránky nenesou zodpovědnost za příspěvky odeslané užívateli,ani za jejich další akce,které by mohli vést k porušování zákonů. Za své příspěvky zodpovídají uživatelé. Nepoužívejte tyto stránky k distribuci a nebo k downloadu jakýchkoliv materiálů, ke kterým nemáte legální oprávnění a nebo licenci ::..