Vítejte na stránkách . Klikněte zde pro registraci

Uživatelské jméno:   Heslo:   Pamätat si ma  Skrýt můj online stav 
Registrovat    Přihlásit se    Fórum    Hledat    FAQ
Bannery     Kontakt   


Informační Panel

Screeny,které budou nad klasickou velikost,půjdou do koše!!! gb




www.centralwar.eu
www.centralwar.eu

Obsah fóra » Filmy download » HD filmy a jiné » HD filmy cz/sk




Odeslat nové téma Odpovědět na téma  [ Příspěvků: 3 ] 
Autor Zpráva
 Předmět příspěvku: Godzilla II Král monster / Godzilla: King of the M... (2019)
 Příspěvek Napsal: 14 zář 2019, 18:20 
Online
Uploader

Registrován: 24 pro 2018, 09:57
ID Užívateľa: 66994

Online: 143d 4h 51m 40s
Poďakoval: 0 x
Obdržal: 2 x


Částka:
12,459.90



Karma: 0


Godzilla II Král monster / Godzilla: King of the Monsters / 2019

Pouze Registrovaní uživatelé mohou prohlížet odkazy v tagu code! Registrujte se anebo se Přihlašte na fórum.


Obrázek

H.265 HEVC

Gdzll.Krl.Mnstr.2019.1080p.HEVC.mkv 6,9Gb

video: 1920 x 800
audio: 5.1 CZ , 7.1 EN
titulky: CZ , EN


Format : Matroska at 7 066 kb/s
Length : 6,50 GiB for 2 h 11 min 42 sek. 910 ms
Video #0 : HEVC at 5 997 kb/s
Aspect : 1920 x 800 (2.400) at 23.976 fps
Audio #0 : AC-3 at 448 kb/s
Infos : 6 kanálov, 48,0 kHz
Language : cs
Audio #1 : AAC at 613 kb/s
Infos : 8 kanálov, 48,0 kHz
Language : en
Text #0 : UTF-8
Language : cs
Text #1 : VobSub
Language : en


Pouze Registrovaní uživatelé mohou prohlížet odkazy v tagu code! Registrujte se anebo se Přihlašte na fórum.


Naposledy upravil Stanley dne 14 zář 2019, 21:01, celkově upraveno 1
Oprava názvu tématu


Nahoru 
 Profil  
 
 Předmět příspěvku: Godzilla II Král monster / Godzilla: King of the M... (2019)
 Příspěvek Napsal: 28 zář 2019, 21:29 
Offline
Registrovaní uživatelé

Registrován: 27 led 2016, 20:28
ID Užívateľa: 65951

Online: 13d 3h 54m 47s
Poďakoval: 0 x
Obdržal: 1 x


Částka:
5,024.20



Karma: 0


Godzilla II Král monster / Godzilla: King of the Monsters (2019)

Obrázek

CSFD / IMDB
Pouze Registrovaní uživatelé mohou prohlížet odkazy v tagu code! Registrujte se anebo se Přihlašte na fórum.


Video/Zdroj: BluRay 1080p
Audio: CZ AC-3 5.1ch, EN E-AC-3 7.1ch
Titulky: CZ, CZ forced, EN


INFO
Citace:
Format : Matroska
Format version : Version 4 / Version 2
File size : 17.0 GiB
Duration : 2h 11mn
Overall bit rate : 18.5 Mbps

Video
Format : AVC
Format profile : High@L4.1
Duration : 2h 11mn
Bit rate : 16.5 Mbps
Width : 1 920 pixels
Height : 800 pixels
Display aspect ratio : 2.40:1
Frame rate mode : Constant
Frame rate : 23.976 (24000/1001) fps
Color space : YUV
Chroma subsampling : 4:2:0
Bit depth : 8 bits
Scan type : Progressive
Bits/(Pixel*Frame) : 0.448
Stream size : 15.2 GiB (89%)

Audio #1
Format : AC-3
Duration : 2h 11mn
Bit rate mode : Constant
Bit rate : 448 Kbps
Channel(s) : 6 channels
Channel positions : Front: L C R, Side: L R, LFE
Sampling rate : 48.0 KHz
Frame rate : 31.250 fps (1536 spf)
Compression mode : Lossy
Stream size : 422 MiB (2%)
Language : Czech
Default : Yes
Forced : Yes

Audio #2
Format : E-AC-3
Duration : 2h 11mn
Bit rate mode : Constant
Bit rate : 500 bps
Channel(s) : 8 channels
Channel(s)_Original : 6 channels
Channel positions : Front: L C R, Side: L R, LFE
Sampling rate : 48.0 KHz
Frame rate : 187.500 fps (256 spf)
Compression mode : Lossy
Stream size : 1.41 GiB (8%)
Language : English
Default : No
Forced : No

Text #1
Format : UTF-8
Language : Czech
Default : Yes
Forced : Yes

Text #2
Format : UTF-8
Language : Czech
Default : No
Forced : No

Text #3
Format : UTF-8
Language : English
Default : No
Forced : No


FASTSHARE
Pouze Registrovaní uživatelé mohou prohlížet odkazy v tagu code! Registrujte se anebo se Přihlašte na fórum.


Pouze Registrovaní uživatelé mohou prohlížet odkazy v tagu code! Registrujte se anebo se Přihlašte na fórum.


Balené bez kompresie. Bez hesla. Pridaný záznam pre opravu dát 5%.

--------------------------------------------------------------------------------------------------------------------------------------------------------

Video/Zdroj: BluRay 2160p
Audio: CZ AC-3 5.1ch, CZ AAC 2ch, EN TrueHD+Atmos 7.1ch, EN AC-3 5.1ch, EN AAC 2ch
Titulky: CZ, CZ forced, EN, FR


INFO
Citace:
Format : Matroska
Format version : Version 4 / Version 2
File size : 56.7 GiB
Duration : 2h 11mn
Overall bit rate mode : Variable
Overall bit rate : 61.6 Mbps

Video
Format : HEVC
Format profile : Main 10@L5.1@High
Duration : 2h 11mn
Bit rate : 56.4 Mbps
Width : 3 840 pixels
Height : 2 160 pixels
Display aspect ratio : 16:9
Frame rate mode : Constant
Frame rate : 23.976 (24000/1001) fps
Color space : YUV
Chroma subsampling : 4:2:0 (Type 2)
Bit depth : 10 bits
Bits/(Pixel*Frame) : 0.284
Stream size : 51.9 GiB (92%)

Audio #1
Format : AC-3
Duration : 2h 11mn
Bit rate mode : Constant
Bit rate : 448 Kbps
Channel(s) : 6 channels
Channel positions : Front: L C R, Side: L R, LFE
Sampling rate : 48.0 KHz
Frame rate : 31.250 fps (1536 spf)
Compression mode : Lossy
Stream size : 422 MiB (1%)
Language : Czech
Default : Yes
Forced : No

Audio #2
Format : AAC
Duration : 2h 11mn
Bit rate : 179 Kbps
Channel(s) : 2 channels
Channel positions : Front: L R
Sampling rate : 48.0 KHz
Frame rate : 46.875 fps (1024 spf)
Compression mode : Lossy
Stream size : 169 MiB (0%)
Language : Czech
Default : No
Forced : No

Audio #3
Format : Atmos / TrueHD
Duration : 2h 11mn
Bit rate mode : Variable
Bit rate : 3 797 Kbps
Maximum bit rate : 6 537 Kbps
Channel(s) : Object Based / 8 channels
Channel positions : Object Based / Front: L C R, Side: L R, Back: L R, LFE
Sampling rate : / 48.0 KHz
Frame rate : 1 200.000 fps (40 spf)
Compression mode : Lossless
Stream size : 3.49 GiB (6%)
Language : English
Default : No
Forced : No

Audio #4
Format : AC-3
Duration : 2h 11mn
Bit rate mode : Constant
Bit rate : 448 Kbps
Channel(s) : 6 channels
Channel positions : Front: L C R, Side: L R, LFE
Sampling rate : 48.0 KHz
Frame rate : 31.250 fps (1536 spf)
Compression mode : Lossy
Stream size : 422 MiB (1%)
Language : English
Default : No
Forced : No

Audio #5
Format : AAC
Duration : 2h 11mn
Bit rate : 192 Kbps
Channel(s) : 2 channels
Channel positions : Front: L R
Sampling rate : 48.0 KHz
Frame rate : 46.875 fps (1024 spf)
Compression mode : Lossy
Stream size : 180 MiB (0%)
Language : English
Default : No
Forced : No

Text #1
Format : PGS
Language : Czech
Default : Yes
Forced : Yes

Text #2
Format : UTF-8
Language : Czech
Default : No
Forced : No

Text #3
Format : PGS
Language : Czech
Default : No
Forced : No

Text #4
Format : UTF-8
Language : Czech
Default : No
Forced : No

Text #5
Format : UTF-8
Language : English
Default : No
Forced : No

Text #6
Format : PGS
Language : English
Default : No
Forced : No

Text #7
Format : PGS
Language : French
Default : No
Forced : No


FASTSHARE
Pouze Registrovaní uživatelé mohou prohlížet odkazy v tagu code! Registrujte se anebo se Přihlašte na fórum.


Balené bez kompresie. Bez hesla. Pridaný záznam pre opravu dát 5%.


Naposledy upravil Sonty1 dne 27 pro 2019, 13:51, celkově upraveno 1

Nahoru 
 Profil  
 
 Předmět příspěvku: Godzilla II Král monster / Godzilla: King of the M... (2019)
 Příspěvek Napsal: 25 bře 2020, 18:33 
Offline
Registrovaní uživatelé

Registrován: 04 zář 2007, 13:04
ID Užívateľa: 818

Online: 2d 1h 21m 53s
Poďakoval: 0 x
Obdržal: 0 x


Částka:
7,826.10



Karma: 0


Godzilla II Král monster / Godzilla: King of the Monsters (2019)

Pouze Registrovaní uživatelé mohou prohlížet odkazy v tagu code! Registrujte se anebo se Přihlašte na fórum.


Obrázek
Obrázek
Obrázek

Pouze Registrovaní uživatelé mohou prohlížet odkazy v tagu code! Registrujte se anebo se Přihlašte na fórum.

_________________
ObrázekBTC, LTC, ETH
1LWRgkaTCsxigEfy9cKc5XGmWntiiGXEbh


Nahoru 
 Profil  
 
Zobrazit příspěvky za předchozí:  Seřadit podle  
 
Odeslat nové téma Odpovědět na téma  [ Příspěvků: 3 ] 

Obsah fóra » Filmy download » HD filmy a jiné » HD filmy cz/sk


 
Nemůžete zakládat nová témata v tomto fóru
Nemůžete odpovídat v tomto fóru
Nemůžete upravovat své příspěvky v tomto fóru
Nemůžete mazat své příspěvky v tomto fóru
Nemůžete přikládat soubory v tomto fóru

Hledat:
Přejít na:  







TOPlist
Český překlad – phpBB.cz
Karma functions powered by Karma MOD © 2007, 2009 m157y
phpBB SEO



..:: Žádný ze zobrazených souborů, které můžete nalézt na tomto fóru, nejsou umístěny na tomto serveru. Autoři stránky nenesou zodpovědnost za příspěvky odeslané užívateli,ani za jejich další akce,které by mohli vést k porušování zákonů. Za své příspěvky zodpovídají uživatelé. Nepoužívejte tyto stránky k distribuci a nebo k downloadu jakýchkoliv materiálů, ke kterým nemáte legální oprávnění a nebo licenci ::..