Vítejte na stránkách . Klikněte zde pro registraci

Uživatelské jméno:   Heslo:   Pamätat si ma  Skrýt můj online stav 
Registrovat    Přihlásit se    Fórum    Hledat    FAQ
Bannery     Kontakt   


Informační Panel

POZOR - OD 9.10.2017 SOUTĚŽ !!!
Do soutěže se můžete hlásit kliknutím ZDE



https://www.netshare.cz/search.html?q=avi


www.centralwar.eu
www.centralwar.eu

Obsah fóra » Filmy download » HD filmy a jiné » HD filmy cz/sk




Odeslat nové téma Odpovědět na téma  [ Příspěvků: 2 ] 
Autor Zpráva
 Předmět příspěvku: Případ číslo 39/ Case 39 (2009). 720p
 Příspěvek Napsal: 24 srp 2010, 16:52 
Offline
Superuploader

Registrován: 28 čer 2009, 08:40
ID Užívateľa: 29934

Online: 12d 3h 34m 51s
Poďakoval: 0 x
Obdržal: 2 x


Částka:
11,170.25



Karma: 5



Medals: 1
Case 39 / 2009 / 720p / DTS EN / DD 5.1 CZ
Obrázek



Obrázek
Pouze Registrovaní uživatelé mohou prohlížet odkazy v tagu code! Registrujte se anebo se Přihlašte na fórum.



Obrázek
Horor / Thriller
USA / Kanada, 2009, 109 min

Režie: Christian Alvart
Hrají: Renée Zellweger, Jodelle Ferland, Ian McShane, Callum Keith Rennie, Bradley Cooper, Adrian Lester, Ian A. Wallace, Vanesa Tomasino, Philip Cabrita, Cynthia Stevenson, Tiffany Lyndall-Knight


Citace:

Format : Matroska
File size : 4.71 GiB
Duration : 1h 49mn
Overall bit rate : 6 165 Kbps
Encoded date : UTC 2010-08-17 21:25:29
ID : 1
Format : AVC
Format/Info : Advanced Video Codec
Format profile : High@L4.1
Format settings, CABAC : Yes
Format settings, ReFrames : 5 frames
Muxing mode : Container profile=Unknown@4.1
Codec ID : V_MPEG4/ISO/AVC
Duration : 1h 49mn
Bit rate : 4 209 Kbps
Width : 1 280 pixels
Height : 544 pixels
Display aspect ratio : 2.35:1
Frame rate : 23.976 fps
Color space : YUV
Chroma subsampling : 4:2:0
Bit depth : 8 bits
Scan type : Progressive
Bits/(Pixel*Frame) : 0.252
Stream size : 3.12 GiB (66%)
Writing library : x264 core 88 r1471 1144615
Encoding settings : cabac=1 / ref=5 / deblock=1:0:0 / analyse=0x3:0x113 / me=umh / subme=7 / psy=1 / psy_rd=1.00:0.15 / mixed_ref=1 / me_range=16 / chroma_me=1 / trellis=1 / 8x8dct=1 / cqm=0 / deadzone=21,11 / fast_pskip=0 / chroma_qp_offset=-3 / threads=12 / sliced_threads=0 / nr=0 / decimate=1 / mbaff=0 / constrained_intra=0 / bframes=3 / b_pyramid=2 / b_adapt=1 / b_bias=0 / direct=1 / wpredb=1 / wpredp=2 / keyint=250 / keyint_min=25 / scenecut=40 / intra_refresh=0 / rc_lookahead=40 / rc=2pass / mbtree=1 / bitrate=4209 / ratetol=1.0 / qcomp=0.60 / qpmin=10 / qpmax=51 / qpstep=4 / cplxblur=20.0 / qblur=0.5 / ip_ratio=1.40 / aq=1:1.00

Audio #1
ID : 2
Format : DTS
Format/Info : Digital Theater Systems
Codec ID : A_DTS
Duration : 1h 49mn
Bit rate mode : Constant
Bit rate : 1 510 Kbps
Channel(s) : 6 channels
Channel positions : Front: L C R, Side: L R, LFE
Sampling rate : 48.0 KHz
Bit depth : 24 bits
Stream size : 1.15 GiB (24%)

Audio #2
ID : 4
Format : AC-3
Format/Info : Audio Coding 3
Mode extension : CM (complete main)
Codec ID : A_AC3
Duration : 1h 49mn
Bit rate mode : Constant
Bit rate : 448 Kbps
Channel(s) : 6 channels
Channel positions : Front: L C R, Side: L R, LFE
Sampling rate : 48.0 KHz
Bit depth : 16 bits
Stream size : 351 MiB (7%)
Title : DD 5.1 CZ@448Kbps
Language : Czech

Subtitle : English, Czech



Obrázek


Obrázek
Pouze Registrovaní uživatelé mohou prohlížet odkazy v tagu code! Registrujte se anebo se Přihlašte na fórum.


Přidán záznam na opravu dat 5%

Obrázek


Všechny linky jsou bez hesla
Linky jsou kombinované,když mají stejnou velikost
Za POWER UPLOADERS pro Vás nahrál Kebi


Naposledy upravil drobec dne 15 črc 2011, 21:23, celkově upraveno 1

Nahoru 
 Profil  
 
 Předmět příspěvku: Případ číslo 39/ Case 39 (2009). 720p
 Příspěvek Napsal: 27 srp 2010, 05:27 
Offline
V.I.P

Registrován: 19 dub 2008, 15:59
ID Užívateľa: 12179

Online: 2d 14h 46m 9s
Poďakoval: 0 x
Obdržal: 6 x


Částka:
3,840.25

V bance:
115,942.20



Karma: 0



Medals: 2
Case 39 / 2009 / 720p / DTS EN / DD 5.1 CZ

original release Case.39.2009.720p.BluRay.x264-BestHD - obsahuje aj cz titulky

Obrázek

ObrázekObrázek
Obrázek
Pouze Registrovaní uživatelé mohou prohlížet odkazy v tagu code! Registrujte se anebo se Přihlašte na fórum.

Obrázek
Pouze Registrovaní uživatelé mohou prohlížet odkazy v tagu code! Registrujte se anebo se Přihlašte na fórum.

-= Pridaný záznam pre opravu dát 3% =-
Obrázek
Pouze Registrovaní uživatelé mohou prohlížet odkazy v tagu code! Registrujte se anebo se Přihlašte na fórum.

_________________
v případě potřeby opravy pište PM


Nahoru 
 Profil  
 
Zobrazit příspěvky za předchozí:  Seřadit podle  
 
Odeslat nové téma Odpovědět na téma  [ Příspěvků: 2 ] 

Obsah fóra » Filmy download » HD filmy a jiné » HD filmy cz/sk


 
Nemůžete zakládat nová témata v tomto fóru
Nemůžete odpovídat v tomto fóru
Nemůžete upravovat své příspěvky v tomto fóru
Nemůžete mazat své příspěvky v tomto fóru
Nemůžete přikládat soubory v tomto fóru

Hledat:
Přejít na:  







TOPlist
Český překlad – phpBB.cz
Karma functions powered by Karma MOD © 2007, 2009 m157y
phpBB SEO



..:: Žádný ze zobrazených souborů, které můžete nalézt na tomto fóru, nejsou umístěny na tomto serveru. Autoři stránky nenesou zodpovědnost za příspěvky odeslané užívateli,ani za jejich další akce,které by mohli vést k porušování zákonů. Za své příspěvky zodpovídají uživatelé. Nepoužívejte tyto stránky k distribuci a nebo k downloadu jakýchkoliv materiálů, ke kterým nemáte legální oprávnění a nebo licenci ::..