Vítejte na stránkách . Klikněte zde pro registraci

Uživatelské jméno:   Heslo:   Pamätat si ma  Skrýt můj online stav 
Registrovat    Přihlásit se    Fórum    Hledat    FAQ
Bannery     Kontakt   


Informační Panel

POZOR - OD 9.10.2017 SOUTĚŽ !!!
Do soutěže se můžete hlásit kliknutím ZDE



https://www.netshare.cz/search.html?q=avi


www.centralwar.eu
www.centralwar.eu

Obsah fóra » Filmy download » HD filmy a jiné » HD filmy cz/sk




Odeslat nové téma Odpovědět na téma  [ Příspěvků: 2 ] 
Autor Zpráva
 Předmět příspěvku: Expendables: Postradatelní / Expendables, The (2010)
 Příspěvek Napsal: 17 pro 2010, 11:35 
Offline
Uploader
Uživatelský avatar

Registrován: 12 čer 2008, 10:00
ID Užívateľa: 14644

Bydliště: Hell
Online: 19h 39m 37s
Poďakoval: 0 x
Obdržal: 4 x


Částka:
7,827.25



Karma: 3


Expendables: Postradatelní / Expendables, The (2010)

The.Expendables.2010.720p.BluRay.x264-Felony.CZ.EN.majors

Audio: CZ AC3 5.1, EN DTS 5.1
Titulky: CZ (forced), CZ, EN

Upravená CZ audiostopa!

Obrázek

Akční / Dobrodružný / Thriller
USA, 2010, 103 min

Režie: Sylvester Stallone
Hrají: Sylvester Stallone, Jason Statham, Jet Li, Dolph Lundgren, Eric Roberts, Randy Couture, Steve Austin, David Zayas, Giselle Itié, Charisma Carpenter, Gary Daniels, Terry Crews, Mickey Rourke, Arnold Schwarzenegger, Bruce Willis

Příběh začíná ve chvíli, kdy skupina ostrých hochů dorazí do místa určení – na ostrov Vilena a postupně zjišťuje, že mise, jejímž cílem je zlikvidovat nebezpečného diktátora, rozhodně nebude tak jednoduchá, jak se zprvu zdálo. Kolem nich se stahuje nebezpečná síť zákeřných lstí a úskoků, někdo velmi usilovně maří všechny jejich plány. Není tu totiž jen přímý protivník, ale i tajemný vnitřní nepřítel, který se pokouší rozložit chlapskou soudržnost jejich týmu. Když je okolnosti přimějí obětovat zdejší spojku, bojovnici za svobodu Sandru (Giselle Itie), Barney se rozhodne manipulaci vzdorovat. Společně se svými muži se vrátí do Vileny, nejen aby zachránili rukojmí a dokončili práci, ale možná také proto, aby zachránili své duše.

Pouze Registrovaní uživatelé mohou prohlížet odkazy v tagu code! Registrujte se anebo se Přihlašte na fórum.


Pouze Registrovaní uživatelé mohou prohlížet odkazy v tagu code! Registrujte se anebo se Přihlašte na fórum.


Sample
Pouze Registrovaní uživatelé mohou prohlížet odkazy v tagu code! Registrujte se anebo se Přihlašte na fórum.


Upravená CZ audiostopa!

Obrázek
Pouze Registrovaní uživatelé mohou prohlížet odkazy v tagu code! Registrujte se anebo se Přihlašte na fórum.


Obrázek
Pouze Registrovaní uživatelé mohou prohlížet odkazy v tagu code! Registrujte se anebo se Přihlašte na fórum.

_________________
Prežívaj každý deň tak ako keby mal byť tvojim posledným, lebo jeden z nich bude posledným.


Nahoru 
 Profil  
 
 Předmět příspěvku: Expendables: Postradatelní / Expendables, The (2010)
 Příspěvek Napsal: 09 led 2011, 15:27 
Offline
Superuploader

Registrován: 28 čer 2009, 08:40
ID Užívateľa: 29934

Online: 12d 3h 34m 51s
Poďakoval: 0 x
Obdržal: 2 x


Částka:
11,170.25



Karma: 5



Medals: 1
Postradatelní Expendables, The (2010) 720 p
Obrázek

Pouze Registrovaní uživatelé mohou prohlížet odkazy v tagu code! Registrujte se anebo se Přihlašte na fórum.


Citace:
General
Complete name : C:\Documents and Settings\admin\Plocha\The.Expendables.2010.(720p.Bluray.x264.CZ.ENG.).mkv
Format : Matroska
File size : 4.12 GiB
Duration : 1h 43mn
Overall bit rate : 5 697 Kbps
Encoded date : UTC 2010-12-26 14:09:06
Writing application : mkvmerge v4.0.0 ('The Stars were mine') built on Jun 6 2010 16:18:42
Writing library : libebml v1.0.0 + libmatroska v1.0.0

Video
ID : 1
Format : AVC
Format/Info : Advanced Video Codec
Format profile : High@L4.1
Format settings, CABAC : Yes
Format settings, ReFrames : 11 frames
Muxing mode : Container profile=Unknown@4.1
Codec ID : V_MPEG4/ISO/AVC
Duration : 1h 43mn
Bit rate : 4 304 Kbps
Nominal bit rate : 4 418 Kbps
Width : 1 280 pixels
Height : 534 pixels
Display aspect ratio : 2.35:1
Frame rate : 23.976 fps
Resolution : 8 bits
Colorimetry : 4:2:0
Scan type : Progressive
Bits/(Pixel*Frame) : 0.263
Stream size : 3.11 GiB (75%)
Title : The.Expendables.2010.720p.Bluray.PEPE
Writing library : x264 core 107 r1766 f9f0035
Encoding settings : cabac=1 / ref=11 / deblock=1:-3:-3 / analyse=0x3:0x133 / me=umh / subme=10 / psy=1 / psy_rd=1.00:0.00 / mixed_ref=1 / me_range=32 / chroma_me=1 / trellis=2 / 8x8dct=1 / cqm=0 / deadzone=21,11 / fast_pskip=1 / chroma_qp_offset=-2 / threads=6 / sliced_threads=0 / nr=0 / decimate=1 / interlaced=0 / constrained_intra=0 / bframes=6 / b_pyramid=2 / b_adapt=2 / b_bias=0 / direct=3 / weightb=1 / open_gop=0 / weightp=2 / keyint=250 / keyint_min=23 / scenecut=40 / intra_refresh=0 / rc_lookahead=40 / rc=2pass / mbtree=1 / bitrate=4418 / ratetol=1.0 / qcomp=0.60 / qpmin=10 / qpmax=51 / qpstep=4 / cplxblur=20.0 / qblur=0.5 / ip_ratio=1.40 / aq=1:1.00

Audio #1
ID : 2
Format : AC-3
Format/Info : Audio Coding 3
Codec ID : A_AC3
Duration : 1h 43mn
Bit rate mode : Constant
Bit rate : 640 Kbps
Channel(s) : 6 channels
Channel positions : Front: L C R, Surround: L R, LFE
Sampling rate : 48.0 KHz
Stream size : 474 MiB (11%)
Title : 5.1 DD bluray by PEPE
Language : Czech

Audio #2
ID : 3
Format : AC-3
Format/Info : Audio Coding 3
Codec ID : A_AC3
Duration : 1h 43mn
Bit rate mode : Constant
Bit rate : 640 Kbps
Channel(s) : 6 channels
Channel positions : Front: L C R, Surround: L R, LFE
Sampling rate : 48.0 KHz
Stream size : 474 MiB (11%)
Title : 5.1 DD Eng Bluray PEPE

Text #1
ID : 4
Format : UTF-8
Codec ID : S_TEXT/UTF8
Codec ID/Info : UTF-8 Plain Text
Title : CZ titulky Forced
Language : Czech

Text #2
ID : 5
Format : UTF-8
Codec ID : S_TEXT/UTF8
Codec ID/Info : UTF-8 Plain Text
Title : CZ Full Titulky
Language : Czech

Created with: DP MediaInfo version 1.05 (c) by Dirk Paehl
MediaInfoLib - v0.7.26


Pouze Registrovaní uživatelé mohou prohlížet odkazy v tagu code! Registrujte se anebo se Přihlašte na fórum.



Pouze Registrovaní uživatelé mohou prohlížet odkazy v tagu code! Registrujte se anebo se Přihlašte na fórum.



Pouze Registrovaní uživatelé mohou prohlížet odkazy v tagu code! Registrujte se anebo se Přihlašte na fórum.



Pouze Registrovaní uživatelé mohou prohlížet odkazy v tagu code! Registrujte se anebo se Přihlašte na fórum.



Přidán záznam na opravu dat 5%

Všechny linky jsou bez hesla
Linky jsou kombinované,když mají stejnou velikost


Nahoru 
 Profil  
 
Zobrazit příspěvky za předchozí:  Seřadit podle  
 
Odeslat nové téma Odpovědět na téma  [ Příspěvků: 2 ] 

Obsah fóra » Filmy download » HD filmy a jiné » HD filmy cz/sk


 
Nemůžete zakládat nová témata v tomto fóru
Nemůžete odpovídat v tomto fóru
Nemůžete upravovat své příspěvky v tomto fóru
Nemůžete mazat své příspěvky v tomto fóru
Nemůžete přikládat soubory v tomto fóru

Hledat:
Přejít na:  







TOPlist
Český překlad – phpBB.cz
Karma functions powered by Karma MOD © 2007, 2009 m157y
phpBB SEO



..:: Žádný ze zobrazených souborů, které můžete nalézt na tomto fóru, nejsou umístěny na tomto serveru. Autoři stránky nenesou zodpovědnost za příspěvky odeslané užívateli,ani za jejich další akce,které by mohli vést k porušování zákonů. Za své příspěvky zodpovídají uživatelé. Nepoužívejte tyto stránky k distribuci a nebo k downloadu jakýchkoliv materiálů, ke kterým nemáte legální oprávnění a nebo licenci ::..