Vítejte na stránkách . Klikněte zde pro registraci

Uživatelské jméno:   Heslo:   Pamätat si ma  Skrýt můj online stav 
Registrovat    Přihlásit se    Fórum    Hledat    FAQ
Bannery     Kontakt   


Informační Panel

wel




www.centralwar.eu
www.centralwar.eu

Obsah fóra » Filmy download » Seriály » Seriály s titulky




Odeslat nové téma Odpovědět na téma  [ Příspěvků: 2 ] 
Autor Zpráva
 Předmět příspěvku: Sleepy Hollow / Sleepy Hollow (2013) EN
 Příspěvek Napsal: 10 led 2019, 19:24 
Offline
Registrovaní uživatelé

Registrován: 04 pro 2015, 22:42
ID Užívateľa: 65833

Online: 10d 11h 9m
Poďakoval: 0 x
Obdržal: 1 x


Částka:
4,934.05



Karma: 0


Ospalá díra S03

Obrázek

info

Pouze Registrovaní uživatelé mohou prohlížet odkazy v tagu code! Registrujte se anebo se Přihlašte na fórum.


Citace:
Ichabod Crane je ve válce za nezávislost zraněn bezhlavým jezdcem. Následně se ocitá v jednadvacátém století v městečku Sleepy Hollow. Jezdec tu právě zabil místního šerifa. Jeho podřízená Abbie přizve Ichaboda, aby jí pomohl vraždící nestvůru dopadnout...(TV Prima)


kvalita

Citace:
General
Complete name : E:\ss\Ospalá-díra-S03E01-by-Stifler.mp4
Format : MPEG-4
Format profile : Base Media
Codec ID : isom
File size : 334 MiB
Duration : 43mn 46s
Overall bit rate mode : Variable
Overall bit rate : 1 068 Kbps
Encoded date : UTC 2015-10-02 02:01:13
Tagged date : UTC 2015-10-02 02:01:13

Video
ID : 2
Format : AVC
Format/Info : Advanced Video Codec
Format profile : High@L3.1
Format settings, CABAC : Yes
Format settings, ReFrames : 5 frames
Codec ID : avc1
Codec ID/Info : Advanced Video Coding
Duration : 43mn 46s
Source duration : 43mn 46s
Bit rate : 914 Kbps
Maximum bit rate : 4 848 Kbps
Width : 720 pixels
Height : 404 pixels
Display aspect ratio : 16:9
Frame rate mode : Constant
Frame rate : 23.976 fps
Color space : YUV
Chroma subsampling : 4:2:0
Bit depth : 8 bits
Scan type : Progressive
Bits/(Pixel*Frame) : 0.131
Stream size : 286 MiB (86%)
Source stream size : 286 MiB (86%)
Writing library : x264 core 148 r2597 e86f3a1
Encoding settings : cabac=1 / ref=5 / deblock=1:0:0 / analyse=0x3:0x113 / me=umh / subme=8 / psy=1 / psy_rd=1.00:0.00 / mixed_ref=1 / me_range=16 / chroma_me=1 / trellis=1 / 8x8dct=1 / cqm=0 / deadzone=21,11 / fast_pskip=1 / chroma_qp_offset=-2 / threads=13 / lookahead_threads=2 / sliced_threads=0 / nr=0 / decimate=1 / interlaced=0 / bluray_compat=0 / constrained_intra=0 / bframes=3 / b_pyramid=2 / b_adapt=2 / b_bias=0 / direct=3 / weightb=1 / open_gop=0 / weightp=2 / keyint=250 / keyint_min=23 / scenecut=40 / intra_refresh=0 / rc_lookahead=50 / rc=crf / mbtree=1 / crf=19.0 / qcomp=0.60 / qpmin=0 / qpmax=69 / qpstep=4 / ip_ratio=1.40 / aq=1:1.00
Encoded date : UTC 2015-10-02 01:22:00
Tagged date : UTC 2015-10-02 02:01:13
Color range : Limited
Matrix coefficients : BT.709

Audio
ID : 1
Format : AAC
Format/Info : Advanced Audio Codec
Format profile : LC
Codec ID : 40
Duration : 43mn 46s
Bit rate mode : Variable
Bit rate : 149 Kbps
Maximum bit rate : 180 Kbps
Channel(s) : 2 channels
Channel positions : Front: L R
Sampling rate : 48.0 KHz
Compression mode : Lossy
Stream size : 46.8 MiB (14%)
Encoded date : UTC 2015-10-02 02:01:13
Tagged date : UTC 2015-10-02 02:01:13


download

Pouze Registrovaní uživatelé mohou prohlížet odkazy v tagu code! Registrujte se anebo se Přihlašte na fórum.


online

Pouze Registrovaní uživatelé mohou prohlížet odkazy v tagu code! Registrujte se anebo se Přihlašte na fórum.


Naposledy upravil warup dne 17 led 2019, 21:29, celkově upraveno 21

Nahoru 
 Profil  
 
 Předmět příspěvku: Sleepy Hollow / Sleepy Hollow (2013) EN
 Příspěvek Napsal: 18 led 2019, 12:06 
Offline
Registrovaní uživatelé

Registrován: 04 pro 2015, 22:42
ID Užívateľa: 65833

Online: 10d 11h 9m
Poďakoval: 0 x
Obdržal: 1 x


Částka:
4,934.05



Karma: 0


Ospalá díra S04

Obrázek

info

Pouze Registrovaní uživatelé mohou prohlížet odkazy v tagu code! Registrujte se anebo se Přihlašte na fórum.


Citace:
Ichabod Crane je ve válce za nezávislost zraněn bezhlavým jezdcem. Následně se ocitá v jednadvacátém století v městečku Sleepy Hollow. Jezdec tu právě zabil místního šerifa. Jeho podřízená Abbie přizve Ichaboda, aby jí pomohl vraždící nestvůru dopadnout...(TV Prima)


kvalita

Citace:
General
Complete name : E:\Sleepy Hollow S04E01 TitCz.mp4
Format : MPEG-4
Format profile : Base Media
Codec ID : isom
File size : 311 MiB
Duration : 43mn 10s
Overall bit rate : 1 007 Kbps
Writing application : Lavf56.4.102

Video
ID : 1
Format : AVC
Format/Info : Advanced Video Codec
Format profile : Baseline@L3
Format settings, CABAC : No
Format settings, ReFrames : 3 frames
Codec ID : avc1
Codec ID/Info : Advanced Video Coding
Duration : 43mn 10s
Bit rate : 873 Kbps
Width : 624 pixels
Height : 352 pixels
Display aspect ratio : 16:9
Frame rate mode : Constant
Frame rate : 23.976 fps
Color space : YUV
Chroma subsampling : 4:2:0
Bit depth : 8 bits
Scan type : Progressive
Bits/(Pixel*Frame) : 0.166
Stream size : 270 MiB (87%)
Writing library : x264 core 142 r2479 dd79a61
Encoding settings : cabac=0 / ref=3 / deblock=1:0:0 / analyse=0x1:0x111 / me=hex / subme=7 / psy=1 / psy_rd=1.00:0.00 / mixed_ref=1 / me_range=16 / chroma_me=1 / trellis=1 / 8x8dct=0 / cqm=0 / deadzone=21,11 / fast_pskip=1 / chroma_qp_offset=-2 / threads=6 / lookahead_threads=1 / sliced_threads=0 / nr=0 / decimate=1 / interlaced=0 / bluray_compat=0 / constrained_intra=0 / bframes=0 / weightp=0 / keyint=250 / keyint_min=23 / scenecut=40 / intra_refresh=0 / rc_lookahead=40 / rc=crf / mbtree=1 / crf=18.0 / qcomp=0.60 / qpmin=0 / qpmax=69 / qpstep=4 / ip_ratio=1.40 / aq=1:1.00

Audio
ID : 2
Format : AAC
Format/Info : Advanced Audio Codec
Format profile : LC
Codec ID : 40
Duration : 43mn 10s
Bit rate mode : Constant
Bit rate : 128 Kbps
Channel(s) : 2 channels
Channel positions : Front: L R
Sampling rate : 44.1 KHz
Compression mode : Lossy
Stream size : 39.6 MiB (13%)


download

Pouze Registrovaní uživatelé mohou prohlížet odkazy v tagu code! Registrujte se anebo se Přihlašte na fórum.


online

Pouze Registrovaní uživatelé mohou prohlížet odkazy v tagu code! Registrujte se anebo se Přihlašte na fórum.


Naposledy upravil warup dne 19 led 2019, 01:19, celkově upraveno 6

Nahoru 
 Profil  
 
Zobrazit příspěvky za předchozí:  Seřadit podle  
 
Odeslat nové téma Odpovědět na téma  [ Příspěvků: 2 ] 

Obsah fóra » Filmy download » Seriály » Seriály s titulky


 
Nemůžete zakládat nová témata v tomto fóru
Nemůžete odpovídat v tomto fóru
Nemůžete upravovat své příspěvky v tomto fóru
Nemůžete mazat své příspěvky v tomto fóru
Nemůžete přikládat soubory v tomto fóru

Hledat:
Přejít na:  







cron
TOPlist
Český překlad – phpBB.cz
Karma functions powered by Karma MOD © 2007, 2009 m157y
phpBB SEO



..:: Žádný ze zobrazených souborů, které můžete nalézt na tomto fóru, nejsou umístěny na tomto serveru. Autoři stránky nenesou zodpovědnost za příspěvky odeslané užívateli,ani za jejich další akce,které by mohli vést k porušování zákonů. Za své příspěvky zodpovídají uživatelé. Nepoužívejte tyto stránky k distribuci a nebo k downloadu jakýchkoliv materiálů, ke kterým nemáte legální oprávnění a nebo licenci ::..