Vítejte na stránkách . Klikněte zde pro registraci

Uživatelské jméno:   Heslo:   Pamätat si ma  Skrýt můj online stav 
Registrovat    Přihlásit se    Fórum    Hledat    FAQ
Bannery     Kontakt   


Informační Panel

:welcome:




www.centralwar.eu
www.centralwar.eu

Obsah fóra » Filmy download » HD filmy a jiné » HD filmy cz/sk




Odeslat nové téma Odpovědět na téma  [ Příspěvků: 3 ] 
Autor Zpráva
 Předmět příspěvku: Pacific Rim: Povstání / Pacific Rim: Uprising (2018)
 Příspěvek Napsal: 10 črc 2018, 15:01 
Offline
Registrovaní uživatelé
Uživatelský avatar

Registrován: 01 zář 2016, 21:25
ID Užívateľa: 66261

Online: 3d 23h 49m 59s
Poďakoval: 0 x
Obdržal: 5 x


Částka:
13,771.90



Karma: 0


Pacific Rim: Povstání / Pacific Rim: Uprising (2018)

Obrázek

Akční / Sci-Fi / Dobrodružný
USA, 2018, 111 min


OBSAH
Poprvé jsme je dokázali zastavit. Jenže to, co mimozemští tvorové Kaiju napáchali na Zemi v prvním díle akčního sci-fi Pacific Rim byla jen předehra k tomu, co si pro lidstvo připravili teď. Hvězda Star Wars John Boyega a Scott Eastwood z Rychle a zběsile vedou tým, který je poslední nadějí na přežití planety. Členy tohoto týmu jsou piloti ovládající Jaegery, obří roboty, kteří jsou svou velikostí a vybavením schopní konkurovat stejně vybaveným Kaiju....

ObrázekObrázek
Pouze Registrovaní uživatelé mohou prohlížet odkazy v tagu code! Registrujte se anebo se Přihlašte na fórum.


Zvuk: český (6CH), anglický (6CH)
Titulky: české-vynucené, české, anglické

MEDIA-INFO
Pacific Rim Uprising (2018) BluRay 720p AC3 CZ EN 6CH
Pouze Registrovaní uživatelé mohou prohlížet odkazy v tagu code! Registrujte se anebo se Přihlašte na fórum.


DOWNLOAD
Pouze Registrovaní uživatelé mohou prohlížet odkazy v tagu code! Registrujte se anebo se Přihlašte na fórum.





MEDIA-INFO
Pacific Rim Uprising (2018) BluRay 1080p AC3 CZ EN 6CH
Pouze Registrovaní uživatelé mohou prohlížet odkazy v tagu code! Registrujte se anebo se Přihlašte na fórum.


DOWNLOAD
Pouze Registrovaní uživatelé mohou prohlížet odkazy v tagu code! Registrujte se anebo se Přihlašte na fórum.

_________________
V případě že ukazuje po stažení souboru z Fastshare u souboru 0MB je to způsobeno že to stahujete přes volné stahování, soubory jsou v pořádku a při stažení přes kredit je i velikost těchto souborů v pořádku.


Nahoru 
 Profil  
 
 Předmět příspěvku: Pacific Rim: Povstání / Pacific Rim: Uprising (2018)
 Příspěvek Napsal: 11 črc 2018, 06:07 
Offline
Registrovaní uživatelé

Registrován: 26 kvě 2015, 02:07
ID Užívateľa: 65331

Online: 9d 21h 42m 25s
Poďakoval: 0 x
Obdržal: 8 x


Částka:
19,088.40



Karma: 0


Pacific Rim: Povstanie / Pacific Rim: Uprising (2018)

CSFD:

Pouze Registrovaní uživatelé mohou prohlížet odkazy v tagu code! Registrujte se anebo se Přihlašte na fórum.


Obrázek

Pacific.Rim.Uprising.2018.720p.BluRay.x264.DD5.1.CZ
Pacific.Rim.Uprising.2018.1080p.BluRay.x264.DD5.1.CZ
Pacific.Rim.Uprising.2018.1080p.BluRay.x264.DD5.1.CZ
Pacific.Rim.Uprising.2018.1080p.BluRay.DTS.REMUX.AVC.DD5.1.CZ


Pacific.Rim.Uprising.2018.720p.BluRay.x264.DD5.1.CZ
Jazyk: Czech 5,1 448 Kbps , English 5.1 640 Kbps
Subtitles: Czech forced , Czech , English

iNFO

Pouze Registrovaní uživatelé mohou prohlížet odkazy v tagu code! Registrujte se anebo se Přihlašte na fórum.


Obrázek
Pouze Registrovaní uživatelé mohou prohlížet odkazy v tagu code! Registrujte se anebo se Přihlašte na fórum.

Pouze Registrovaní uživatelé mohou prohlížet odkazy v tagu code! Registrujte se anebo se Přihlašte na fórum.

Přidán záznam na opravu dat 3%.

Pacific.Rim.Uprising.2018.1080p.BluRay.x264.DD5.1.CZ
Jazyk: Czech 5,1 448 Kbps , English 5.1 640 Kbps
Subtitles: Czech forced , Czech , English

iNFO

Pouze Registrovaní uživatelé mohou prohlížet odkazy v tagu code! Registrujte se anebo se Přihlašte na fórum.


Obrázek
Pouze Registrovaní uživatelé mohou prohlížet odkazy v tagu code! Registrujte se anebo se Přihlašte na fórum.

Pouze Registrovaní uživatelé mohou prohlížet odkazy v tagu code! Registrujte se anebo se Přihlašte na fórum.

Přidán záznam na opravu dat 3%.

Pacific.Rim.Uprising.2018.1080p.BluRay.x264.DD5.1.CZ
Jazyk: Czech 5,1 448 Kbps , English 5.1 640 Kbps
Subtitles: Czech forced , Czech , English

iNFO

Pouze Registrovaní uživatelé mohou prohlížet odkazy v tagu code! Registrujte se anebo se Přihlašte na fórum.


Obrázek
Pouze Registrovaní uživatelé mohou prohlížet odkazy v tagu code! Registrujte se anebo se Přihlašte na fórum.

Pouze Registrovaní uživatelé mohou prohlížet odkazy v tagu code! Registrujte se anebo se Přihlašte na fórum.

Přidán záznam na opravu dat 3%.
Pacific.Rim.Uprising.2018.1080p.BluRay.DTS.REMUX.AVC.DD5.1.CZ
Jazyk: Czech 5.1 448 Kbps , English 5.1 DTS 755 Kbps
Subtitles: Czech forced , Czech , English

iNFO

Pouze Registrovaní uživatelé mohou prohlížet odkazy v tagu code! Registrujte se anebo se Přihlašte na fórum.


Obrázek
Pouze Registrovaní uživatelé mohou prohlížet odkazy v tagu code! Registrujte se anebo se Přihlašte na fórum.

Pouze Registrovaní uživatelé mohou prohlížet odkazy v tagu code! Registrujte se anebo se Přihlašte na fórum.

Přidán záznam na opravu dat 3%.


Naposledy upravil browing3006 dne 16 črc 2018, 20:12, celkově upraveno 5

Nahoru 
 Profil  
 
 Předmět příspěvku: Pacific Rim: Povstání / Pacific Rim: Uprising (2018)
 Příspěvek Napsal: 23 črc 2018, 11:59 
Offline
Registrovaní uživatelé

Registrován: 27 led 2016, 20:28
ID Užívateľa: 65951

Online: 6d 16h 38m 42s
Poďakoval: 0 x
Obdržal: 0 x


Částka:
2,438.40



Karma: 0


Pacific Rim: Povstání / Pacific Rim: Uprising
Video/Zdroj: BluRay 1080p
Audio: CZ AC-3 5.1ch, CZ E-AC-3 5.1ch, EN AC-3 5.1ch, EN AC-3 5.1ch
Titulky: CZ forced, CZ, EN

Obrázek

Pouze Registrovaní uživatelé mohou prohlížet odkazy v tagu code! Registrujte se anebo se Přihlašte na fórum.


Citace:
Format : Matroska
Format version : Version 4 / Version 2
File size : 13.8 GiB
Duration : 1 h 50 min
Overall bit rate : 17.8 Mb/s


Video
Format : AVC
Format profile : High@L4.1
Duration : 1 h 50 min
Bit rate : 15.5 Mb/s
Width : 1 920 pixels
Height : 800 pixels
Display aspect ratio : 2.40:1
Frame rate mode : Constant
Frame rate : 23.976 (24000/1001) FPS
Color space : YUV
Chroma subsampling : 4:2:0
Bit depth : 8 bits
Scan type : Progressive
Bits/(Pixel*Frame) : 0.421
Stream size : 12.0 GiB (87%)

Audio #1
Format : AC-3
Duration : 1 h 50 min
Bit rate mode : Constant
Bit rate : 448 kb/s
Channel(s) : 6 channels
Channel positions : Front: L C R, Side: L R, LFE
Sampling rate : 48.0 kHz
Frame rate : 31.250 FPS (1536 SPF)
Bit depth : 16 bits
Compression mode : Lossy
Stream size : 355 MiB (3%)
Language : Czech
Default : Yes
Forced : Yes

Audio #2
Format : E-AC-3
Duration : 1 h 50 min
Bit rate mode : Constant
Bit rate : 500 b/s
Channel(s) : 6 channels
Channel positions : Front: L C R, Side: L R, LFE
Sampling rate : 48.0 kHz
Frame rate : 187.500 FPS (256 SPF)
Compression mode : Lossy
Stream size : 608 MiB (4%)
Language : Czech
Default : No
Forced : No

Audio #3
Format : AC-3
Duration : 1 h 50 min
Bit rate mode : Constant
Bit rate : 640 kb/s
Channel(s) : 6 channels
Channel positions : Front: L C R, Side: L R, LFE
Sampling rate : 48.0 kHz
Frame rate : 31.250 FPS (1536 SPF)
Bit depth : 16 bits
Compression mode : Lossy
Stream size : 507 MiB (4%)
Language : English
Default : No
Forced : No

Audio #4
Format : AC-3
Duration : 1 h 50 min
Bit rate mode : Constant
Bit rate : 448 kb/s
Channel(s) : 6 channels
Channel positions : Front: L C R, Side: L R, LFE
Sampling rate : 48.0 kHz
Frame rate : 31.250 FPS (1536 SPF)
Bit depth : 16 bits
Compression mode : Lossy
Stream size : 355 MiB (3%)
Title : Original
Language : English
Default : No
Forced : No

Text #1
Format : UTF-8
Language : Czech
Default : Yes
Forced : Yes

Text #2
Format : UTF-8
Language : Czech
Default : No
Forced : No

Text #3
Format : UTF-8
Language : English
Default : No
Forced : No


Fastshare
Pouze Registrovaní uživatelé mohou prohlížet odkazy v tagu code! Registrujte se anebo se Přihlašte na fórum.


Bez hesla. Balené bez kompresie. Pridaný záznam pre opravu dát 5%.


Nahoru 
 Profil  
 
Zobrazit příspěvky za předchozí:  Seřadit podle  
 
Odeslat nové téma Odpovědět na téma  [ Příspěvků: 3 ] 

Obsah fóra » Filmy download » HD filmy a jiné » HD filmy cz/sk


 
Nemůžete zakládat nová témata v tomto fóru
Nemůžete odpovídat v tomto fóru
Nemůžete upravovat své příspěvky v tomto fóru
Nemůžete mazat své příspěvky v tomto fóru
Nemůžete přikládat soubory v tomto fóru

Hledat:
Přejít na:  







TOPlist
Český překlad – phpBB.cz
Karma functions powered by Karma MOD © 2007, 2009 m157y
phpBB SEO



..:: Žádný ze zobrazených souborů, které můžete nalézt na tomto fóru, nejsou umístěny na tomto serveru. Autoři stránky nenesou zodpovědnost za příspěvky odeslané užívateli,ani za jejich další akce,které by mohli vést k porušování zákonů. Za své příspěvky zodpovídají uživatelé. Nepoužívejte tyto stránky k distribuci a nebo k downloadu jakýchkoliv materiálů, ke kterým nemáte legální oprávnění a nebo licenci ::..