Vítejte na stránkách . Klikněte zde pro registraci

Uživatelské jméno:   Heslo:   Pamätat si ma  Skrýt můj online stav 
Registrovat    Přihlásit se    Fórum    Hledat    FAQ
Bannery     Kontakt   


Informační Panel

:welcome:




www.centralwar.eu
www.centralwar.eu

Obsah fóra » Filmy download » CZ/SK dubbing




Odeslat nové téma Odpovědět na téma  [ Příspěvek: 1 ] 
Autor Zpráva
 Předmět příspěvku: Dukla 61 (2018)
 Příspěvek Napsal: 15 zář 2018, 12:02 
Online
Registrovaní uživatelé
Uživatelský avatar

Registrován: 23 kvě 2010, 09:37
ID Užívateľa: 38343

Online: 60d 6h 21m 34s
Poďakoval: 1 x
Obdržal: 2 x


Částka:
20,240.25



Karma: 0


Obrázek

Pouze Registrovaní uživatelé mohou prohlížet odkazy v tagu code! Registrujte se anebo se Přihlašte na fórum.


Drama / Historický
Česko, 2018, 154 min

Režie: David Ondříček
Scénář: Jakub Režný, Matěj Podzimek
Kamera: Marek Dvořák
Hudba: Beata Hlavenková
Hrají: Marek Taclík, Martha Issová, Oskar Hes, Antonie Formanová, Peter Nádasdi, Robert Mikluš

Ja su haviř, kdo je vic! Příběh (z) doby, kdy se socialisticky žilo, kapitalisticky pracovalo a kdy poslední z posledních byli prvními. Dvoudílný televizní film o osudech rodiny elitního havíře na pozadí největší důlní katastrofy druhé poloviny 20. století.
1. část: Osmnáctiletý Petr přivede do jiného stavu svou první lásku Janu. Aby získal byt, nastoupí přes odpor rodičů do dolu, ve kterém pracuje jeho otec Milan. Elitní havíř pronásledovaný záchvaty klaustrofobie po prožitém závalu. Petrovýma očima poznáváme drsné parťáctví i fyzicky a psychicky nepředstavitelně tvrdou práci 600 metrů pod zemí. Práci, při které jde každý den o život. A na povrchu? Tam Jana tráví dny s Petrovou matkou Marií. Ráznou ženou, která křehkou dívku nemůže vystát.
2. část: 7. 7. 1961. Marii se rozpadá rodina. Petr hrubne, zhrouceného Milana přeřadili na hůře placené místo a Jana vyzradí Mariino nejtemnější tajemství. Ten den se Důl Dukla promění zanedbáním bezpečnostních pravidel v hořící peklo. Strach, chaos, panika, ale také statečnost a odhodlání zachránit ty, kteří zůstali pod zemí. A na povrchu? Ženy vyhlížející manžely, syny, milence.


1 DIEL - TVrip

File size : 2.45 GiB
Duration : 1 h 20 min
Overall bit rate : 4 344 kb/s


Video
Format : AVC
Format profile : High@L4
Format settings : CABAC / 4 Ref Frames
Format settings, ReFrames : 4 frames
Bit rate : 3 702 kb/s
Width : 1 920 pixels
Height : 1 080 pixels
Display aspect ratio : 16:9
Frame rate mode : Constant
Frame rate : 25.000 FPS


Audio
Format : AC-3
Bit rate : 640 kb/s
Channel(s) : 6 channels
Channel positions : Front: L C R, Side: L R, LFE
Sampling rate : 48.0 kHz
Frame rate : 31.250 FPS (1536 SPF)
Bit depth : 16 bits
Delay relative to video : -200 ms
Stream size : 369 MiB (15%)
Jazyk : Czech


Pouze Registrovaní uživatelé mohou prohlížet odkazy v tagu code! Registrujte se anebo se Přihlašte na fórum.


2 DIEL - TVrip

File size : 2.19 GiB
Duration : 1 h 13 min
Overall bit rate : 4 284 kb/s

Video
Format : AVC
Format profile : High@L4
Format settings : CABAC / 3 Ref Frames
Format settings, ReFrames : 3 frames
Codec ID : V_MPEG4/ISO/AVC
Bit rate : 3 643 kb/s
Width : 1 920 pixels
Height : 1 080 pixels
Display aspect ratio : 16:9
Frame rate : 25.000 FPS

Audio
Format : AC-3
Bit rate : 640 kb/s
Channel(s) : 6 channels
Channel positions : Front: L C R, Side: L R, LFE
Sampling rate : 48.0 kHz
Frame rate : 31.250 FPS (1536 SPF)
Bit depth : 16 bits
Delay relative to video : -200 ms
Stream size : 334 MiB
Jazyk : Czech


Pouze Registrovaní uživatelé mohou prohlížet odkazy v tagu code! Registrujte se anebo se Přihlašte na fórum.


Naposledy upravil Stanley dne 15 zář 2018, 12:19, celkově upraveno 1
Oprava názvu tématu


Nahoru 
 Profil  
 
Zobrazit příspěvky za předchozí:  Seřadit podle  
 
Odeslat nové téma Odpovědět na téma  [ Příspěvek: 1 ] 

Obsah fóra » Filmy download » CZ/SK dubbing


 
Nemůžete zakládat nová témata v tomto fóru
Nemůžete odpovídat v tomto fóru
Nemůžete upravovat své příspěvky v tomto fóru
Nemůžete mazat své příspěvky v tomto fóru
Nemůžete přikládat soubory v tomto fóru

Hledat:
Přejít na:  







cron
TOPlist
Český překlad – phpBB.cz
Karma functions powered by Karma MOD © 2007, 2009 m157y
phpBB SEO



..:: Žádný ze zobrazených souborů, které můžete nalézt na tomto fóru, nejsou umístěny na tomto serveru. Autoři stránky nenesou zodpovědnost za příspěvky odeslané užívateli,ani za jejich další akce,které by mohli vést k porušování zákonů. Za své příspěvky zodpovídají uživatelé. Nepoužívejte tyto stránky k distribuci a nebo k downloadu jakýchkoliv materiálů, ke kterým nemáte legální oprávnění a nebo licenci ::..