Vítejte na stránkách . Klikněte zde pro registraci

Uživatelské jméno:   Heslo:   Pamätat si ma  Skrýt můj online stav 
Registrovat    Přihlásit se    Fórum    Hledat    FAQ
Bannery     Kontakt   


Informační Panel

Forum je na prodej,v případě zájmu pište zde contact.php




www.centralwar.eu
www.centralwar.eu

Obsah fóra » Filmy download » Seriály » Seriály s titulky




Odeslat nové téma Odpovědět na téma  [ Příspěvků: 5 ] 
Autor Zpráva
 Předmět příspěvku: The Voice (2021) / EN
 Příspěvek Napsal: 14 pro 2021, 11:10 
Offline
Uploader

Registrován: 04 bře 2013, 16:40
ID Užívateľa: 62927

Online: 13d 3h 40m 29s
Poďakoval: 0 x
Obdržal: 0 x


Částka:
28,516.05

V bance:
16,682.60



Karma: 0


The.Voice.S21E19&20.720p.WEB.h264-WEBTUBE 2021-11-25

Pouze Registrovaní uživatelé mohou prohlížet odkazy v tagu code! Registrujte se anebo se Přihlašte na fórum.


Obrázek

Pouze Registrovaní uživatelé mohou prohlížet odkazy v tagu code! Registrujte se anebo se Přihlašte na fórum.


Citace:
Created by: John de Mol Jr.
Judged by: Blake Shelton, Kelly Clarkson, John Legend, Ariana Grande
Hosted by: Carson Daly

The Voice S21E19
Video
ID : 1
Format : AVC
Format/Info : Advanced Video Codec
Format profile : High@L3.1
Format settings : CABAC / 4 Ref Frames
Format settings, CABAC : Yes
Format settings, Reference frames : 4 frames
Codec ID : V_MPEG4/ISO/AVC
Duration : 1 h 25 min
Bit rate : 4 814 kb/s
Width : 1 280 pixels
Height : 720 pixels
Display aspect ratio : 16:9
Frame rate mode : Constant

Audio
ID : 2
Format : AAC LC
Format/Info : Advanced Audio Codec Low Complexity
Codec ID : A_AAC-2
Duration : 1 h 25 min
Bit rate : 96.0 kb/s
Channel(s) : 2 channels
Channel layout : L R
Sampling rate : 48.0 kHz
Frame rate : 46.875 FPS (1024 SPF)
Compression mode : Lossy
Stream size : 58.5 MiB
Language : English
Subtitles English/Spanish

The Voice S21E20
Video
ID : 1
Format : AVC
Format/Info : Advanced Video Codec
Format profile : High@L3.1
Format settings : CABAC / 4 Ref Frames
Format settings, CABAC : Yes
Format settings, Reference frames : 4 frames
Codec ID : V_MPEG4/ISO/AVC
Duration : 40 min 27 s
Bit rate : 4 814 kb/s
Width : 1 280 pixels
Height : 720 pixels
Display aspect ratio : 16:9
Frame rate mode : Constant

Audio
ID : 2
Format : AAC LC
Format/Info : Advanced Audio Codec Low Complexity
Codec ID : A_AAC-2
Duration : 40 min 27 s
Bit rate : 96.0 kb/s
Channel(s) : 2 channels
Channel layout : L R
Sampling rate : 48.0 kHz
Frame rate : 46.875 FPS (1024 SPF)
Compression mode : Lossy
Stream size : 27.7 MiB (2%)
Language : English
Subtitles English/Spanish


Nahoru 
 Profil  
 
 Předmět příspěvku: The Voice (2021) / EN
 Příspěvek Napsal: 14 pro 2021, 11:10 
Offline
Uploader

Registrován: 04 bře 2013, 16:40
ID Užívateľa: 62927

Online: 13d 3h 40m 29s
Poďakoval: 0 x
Obdržal: 0 x


Částka:
28,516.05

V bance:
16,682.60



Karma: 0


The.Voice.S21.E21.720p.WEB.KOGi.h264.Eng.AAC2.0

Pouze Registrovaní uživatelé mohou prohlížet odkazy v tagu code! Registrujte se anebo se Přihlašte na fórum.


Obrázek

Pouze Registrovaní uživatelé mohou prohlížet odkazy v tagu code! Registrujte se anebo se Přihlašte na fórum.


Citace:
Created by: John de Mol Jr.
Judged by: Blake Shelton, Kelly Clarkson, John Legend, Ariana Grande
Hosted by: Carson Daly
Size: 2.9 GiB
Runtime: 01:25:00.628
Resolution: 1280 x 720
bitrate: 4,872 kb/s
Audio: AAC @ 96.0 kb/s (2.0) / English
Subs: English, Spanish


Nahoru 
 Profil  
 
 Předmět příspěvku: The Voice (2021) / EN
 Příspěvek Napsal: 14 pro 2021, 11:15 
Offline
Uploader

Registrován: 04 bře 2013, 16:40
ID Užívateľa: 62927

Online: 13d 3h 40m 29s
Poďakoval: 0 x
Obdržal: 0 x


Částka:
28,516.05

V bance:
16,682.60



Karma: 0


The.Voice.S21.E22.720p.WEB.KOGi.h264.Eng.AAC2.0

Pouze Registrovaní uživatelé mohou prohlížet odkazy v tagu code! Registrujte se anebo se Přihlašte na fórum.


Obrázek

Pouze Registrovaní uživatelé mohou prohlížet odkazy v tagu code! Registrujte se anebo se Přihlašte na fórum.


Citace:
Created by: John de Mol Jr.
Judged by: Blake Shelton, Kelly Clarkson, John Legend, Ariana Grande
Hosted by: Carson Daly
Size: 1.5 GiB
Runtime: 00:43:06.417
Resolution: 1280 x 720
bitrate: 4,864 kb/s
Audio: AAC @ 96.0 kb/s (2.0) / English
Subs: English, Spanis


Nahoru 
 Profil  
 
 Předmět příspěvku: The Voice (2021) / EN
 Příspěvek Napsal: 14 pro 2021, 11:19 
Offline
Uploader

Registrován: 04 bře 2013, 16:40
ID Užívateľa: 62927

Online: 13d 3h 40m 29s
Poďakoval: 0 x
Obdržal: 0 x


Částka:
28,516.05

V bance:
16,682.60



Karma: 0


The.Voice.S21E23.720p.WEB.h264.AAC2.0.WEBTUBE

Pouze Registrovaní uživatelé mohou prohlížet odkazy v tagu code! Registrujte se anebo se Přihlašte na fórum.


Obrázek

Pouze Registrovaní uživatelé mohou prohlížet odkazy v tagu code! Registrujte se anebo se Přihlašte na fórum.


Citace:
Format : Matroska at 4 933 kb/s
Length : 2.84 GiB for 1 h 22 min 21 s 335 ms

Video #0 : AVC at 4 814 kb/s
Aspect : 1280 x 720 (1.778) at 29.970 fps

Audio #0 : AAC at 96.0 kb/s
Infos : 2 channels, 48.0 kHz
Language : en

Text #0 : UTF-8
Language : en


Nahoru 
 Profil  
 
 Předmět příspěvku: The Voice (2021) / EN
 Příspěvek Napsal: 14 pro 2021, 11:23 
Offline
Uploader

Registrován: 04 bře 2013, 16:40
ID Užívateľa: 62927

Online: 13d 3h 40m 29s
Poďakoval: 0 x
Obdržal: 0 x


Částka:
28,516.05

V bance:
16,682.60



Karma: 0


The.Voice.S21E24.720p.WEB.h264.AAC2.0.WEBTUBE

Pouze Registrovaní uživatelé mohou prohlížet odkazy v tagu code! Registrujte se anebo se Přihlašte na fórum.


Obrázek

Pouze Registrovaní uživatelé mohou prohlížet odkazy v tagu code! Registrujte se anebo se Přihlašte na fórum.


Citace:
Format : Matroska at 4 933 kb/s
Length : 1.48 GiB for 43 min 3 s 446 ms

Video #0 : AVC at 4 814 kb/s
Aspect : 1280 x 720 (1.778) at 29.970 fps

Audio #0 : AAC at 96.0 kb/s
Infos : 2 channels, 48.0 kHz
Language : en

Text #0 : UTF-8
Language : en


Nahoru 
 Profil  
 
Zobrazit příspěvky za předchozí:  Seřadit podle  
 
Odeslat nové téma Odpovědět na téma  [ Příspěvků: 5 ] 

Obsah fóra » Filmy download » Seriály » Seriály s titulky


 
Nemůžete zakládat nová témata v tomto fóru
Nemůžete odpovídat v tomto fóru
Nemůžete upravovat své příspěvky v tomto fóru
Nemůžete mazat své příspěvky v tomto fóru
Nemůžete přikládat soubory v tomto fóru

Hledat:
Přejít na:  







cron
TOPlist
Český překlad – phpBB.cz
Karma functions powered by Karma MOD © 2007, 2009 m157y
phpBB SEO



..:: Žádný ze zobrazených souborů, které můžete nalézt na tomto fóru, nejsou umístěny na tomto serveru. Autoři stránky nenesou zodpovědnost za příspěvky odeslané užívateli,ani za jejich další akce,které by mohli vést k porušování zákonů. Za své příspěvky zodpovídají uživatelé. Nepoužívejte tyto stránky k distribuci a nebo k downloadu jakýchkoliv materiálů, ke kterým nemáte legální oprávnění a nebo licenci ::..